» » Элла Фитцджеральд - Танцы в савойе (концертная запись 1957г) (1989)

 
 
 

Элла Фитцджеральд - Танцы в савойе (концертная запись 1957г) (1989)

Автор: Ollleg от 14-05-2013, 16:51, посмотрело: 1597

2
Vinyl-Rip by Ollleg



Элла Фитцджеральд - Танцы в савойе (концертная запись 1957г) (1989)



Название:
Танцы в савойе

Исполнитель:
Элла Фитцджеральд

Жанр: jazz
Год выпуска: (концертная запись 1957г) (1989)
Количество композиций: 10
Фирма: Мелодия
Номер по каталогу: С60 27469 006
Формат: mp3 + lossless + wav
Качество: cbr 320 kbps + flac 16 bit/44,1 kHz + wav 24 bit/96 kHz
Размер файла: 91 mb + 233 mb + 1,14 GB


Предпрослушивание: lp,mp3-190


Список композиций:

Сторона 1 - 16.42 мин
Запись с концерта 29 сентября 1957 г.


1.Я согласна
lt's all right with me (Cole Porter)

2.Не уходи во гневе
Don'cha go'way mad
(Jimmy Mundy-Illinois Jacquet-Al Stillman)

3.Очарована, обеспокоена и озадачена
Bewitched, bothered and bewildered
(Richard Rodgers-Lorenz Hart)

4.Эти глупые мелочи
These foolish things
(Jask Strachey-Harry Link-Holt Marwell)

5.Злой ветер
Ill wind (Harold Arlen-Ted Koehler)

6.Очень хорошо
Goody goody (Johny Mercer-Malt Malneck)

Сторона 2 - 16.56 мин

1.Лунный свет в Вермонте
Moonlight in Vermont
(Kfrl Suessdorf-John Blackburn)

2.Эти глаза
Them there eyes
(Maced Pinkard-Doris Tauber-William Tracey)
Запись с концерта 29 сентября 1957г.

3.Танцы в савойе
Stompin' At the savoy (Benny Goodman-
Edgar Sampson-Chick Webb-Andy Razaf)

4.Леди, будьте добры
Oh, lady be good
(George Gershwin-Ira Gershwin)
Запись с концерта 7 октября 1957г.







СUE для релиза под спойлером
*любезно предоставил посетитель XELENA :



Скачать Элла Фитцджеральд - Танцы в савойе (концертная запись 1957г) (1989):
Внимание! У вас нет прав для просмотра скрытого текста.

Релиз понравился ? Скажи автору спасибо !

Категория: Vinyl Rip, Jazz, Blues, Soul

Уважаемый посетитель, Вы зашли на сайт как незарегистрированный пользователь.
Мы рекомендуем Вам зарегистрироваться либо войти на сайт под своим именем.
<
  • 509 комментариев
  • 104 публикации
  • ICQ:
18 мая 2013 14:32

xelena

  • Группа: Главный Редактор
  • Регистрация: 19.07.2012
  • Статус: Пользователь offline
 
Spasibo! Vsex blag!

<
  • 509 комментариев
  • 104 публикации
  • ICQ:
27 июля 2013 16:15

xelena

  • Группа: Главный Редактор
  • Регистрация: 19.07.2012
  • Статус: Пользователь offline
 
Элла Фитцджеральд - 1989 - Танцы в Савойе (1957).cue
--------------------------------------------------------------------
REM GENRE Jazz
REM DATE 1989
PERFORMER "Элла Фитцджеральд"
TITLE "Танцы в Савойе"
FILE "ELLA -DANCE SAVOI side A(промыта).wav" WAVE
TRACK 01 AUDIO
TITLE "Я согласна /lt's all right with me/"
INDEX 01 00:00:00
TRACK 02 AUDIO
TITLE "Не уходи во гневе /Don'cha go'way mad/"
INDEX 01 02:30:04
TRACK 03 AUDIO
TITLE "Очарована, обеспокоена и озадачена /Bewitched, bothered and bewildered/"
INDEX 01 05:13:39
TRACK 04 AUDIO
TITLE "Эти глупые мелочи /These foolish things/"
INDEX 01 08:18:18
TRACK 05 AUDIO
TITLE "Злой ветер /Ill wind/"
INDEX 01 11:58:70
TRACK 06 AUDIO
TITLE "Очень хорошо /Goody goody/"
INDEX 01 14:46:30
FILE "ELLA -DANCE SAVOI side B(промыта).wav" WAVE
TRACK 07 AUDIO
TITLE "Лунный свет в Вермонте /Moonlight in Vermont/"
INDEX 01 00:00:00
TRACK 08 AUDIO
TITLE "Эти глаза /Them there eyes/"
INDEX 01 03:06:65
TRACK 09 AUDIO
TITLE "Танцы в Савойе /Stompin' At the savoy/"
INDEX 01 05:18:38
TRACK 10 AUDIO
TITLE "Леди, будьте добры /Oh, lady be good/"
INDEX 01 12:49:52

Информация
Посетители, находящиеся в группе Гости, не могут оставлять комментарии к данной публикации.