» » Chris Rea ‎– Shamrock Diaries 1985

 
 
 

Chris Rea ‎– Shamrock Diaries 1985

Автор: sofprom от 30-10-2016, 17:18, посмотрело: 1151

2
* LP *



Chris Rea ‎– Shamrock Diaries          1985

Chris Rea ‎– Shamrock Diaries          1985

Chris Rea ‎– Shamrock Diaries          1985

Chris Rea ‎– Shamrock Diaries          1985




Альбом:
Shamrock Diaries
Имя исполнителя/ группы:
Chris Rea
Музыкальный жанр/ стиль: Rock, Pop, Soft Rock, Pop Rock
Дата записи/ выхода: 1985
Всего треков: 10
Выпущен фирмой: Magnet
Каталог №: 825 539-1
Файл раздачи: wav 16/44
Вес архива: 325mb

Tracklist:

A1 Steel River 6:15
A2 Stainsby Girls 3:51
A3 Chisel Hill 4:04
A4 Josephine 4:26
A5 One Golden Rule 4:27
B1 All Summer Long 4:08
B2 Stone 4:20
B3 Shamrock Diaries 4:54
B4 Love Turns To Lies 4:09
B5 Hired Gun 8:00

Дополнительно:
Оцифровку выполнил: Совпром
Пост-обработка: Нет


Скачать:
Внимание! У вас нет прав для просмотра скрытого текста.

==============

Изменил: xelena по причине: я.диск перезалит

Релиз понравился ? Скажи автору спасибо !

Категория: Vinyl Rip, Rock, Art-rock, Hard-rock, pop muzic

Уважаемый посетитель, Вы зашли на сайт как незарегистрированный пользователь.
Мы рекомендуем Вам зарегистрироваться либо войти на сайт под своим именем.
<
  • 431 комментарий
  • 0 публикаций
  • ICQ: 130
22 ноября 2016 00:14

aktimel

  • Группа: Ветеран проекта
  • Регистрация: 8.11.2012
  • Статус: Пользователь offline
 
благоларю
очень нравился в молодости
и сейчас послушаю

<
  • 32 комментария
  • 27 публикаций
  • ICQ:
24 июня 2017 16:32

Ciceronn

  • Группа: Релизёр
  • Регистрация: 12.12.2015
  • Статус: Пользователь offline
 
Спасибо большое!вот cue для рипа (переименовать стороны рипа в "Side A" и "Side b"
REM GENRE Rock
REM DATE 1985
REM PLASTINKA.ORG
REM COMMENT "Magnet - 825 539-1, W.Germany"
PERFORMER "Chris Rea"
TITLE "Shamrock Diaries"
FILE "Side A.wav" WAVE

TRACK 01 AUDIO
TITLE "Steel River"
PERFORMER "Chris Rea"
INDEX 01 00:00:00
TRACK 02 AUDIO
TITLE "Stainsby Girls"
PERFORMER "Chris Rea"
INDEX 01 06:17:40
TRACK 03 AUDIO
TITLE "Chisel Hill"
PERFORMER "Chris Rea"
INDEX 01 10:10:24
TRACK 04 AUDIO
TITLE "Josephine"
PERFORMER "Chris Rea"
INDEX 01 14:16:07
TRACK 05 AUDIO
TITLE "One Golden Rule"
PERFORMER "Chris Rea"
INDEX 01 18:45:26
FILE "Side B.wav" WAVE

TRACK 06 AUDIO
TITLE "All Summer Long"
PERFORMER "Chris Rea"
INDEX 01 00:00:00
TRACK 07 AUDIO
TITLE "Stone"
PERFORMER "Chris Rea"
INDEX 01 04:14:56
TRACK 08 AUDIO
TITLE "Shamrock Diaries"
PERFORMER "Chris Rea"
INDEX 01 08:42:30
TRACK 09 AUDIO
TITLE "Love Turns To Lies"
PERFORMER "Chris Rea"
INDEX 01 13:38:73
TRACK 10 AUDIO
TITLE "Hired Gun"
PERFORMER "Chris Rea"
INDEX 01 17:51:27

Информация
Посетители, находящиеся в группе Гости, не могут оставлять комментарии к данной публикации.