» » Pink Floyd - Delicate Sound of Thunber (live)(1988)

 
 
 

Pink Floyd - Delicate Sound of Thunber (live)(1988)

Автор: Ollleg от 30-10-2014, 00:19, посмотрело: 7718

3
RIP by Ollleg




Pink Floyd - Delicate Sound of Thunber (live)(1988)

Pink Floyd - Delicate Sound of Thunber (live)(1988)

Pink Floyd - Delicate Sound of Thunber (live)(1988)


Информация о пластинке:
Название: Delicate Sound of Thunber (live)
Исполнитель: Pink Floyd
Жанр: Rock
Год выпуска: 1988 запись,1990 издание
Количество композиций: 14
Количество пластинок: 2lp
Фирма: Мелодия
Номер по каталогу: А60 00543 007
Формат: mp3 + lossless
Качество: cbr 320 kbps + flac 16 bit/44,1 kHz + flac 24 bit/96 kHz
Размер файла: 250mb + 679mb + (1,08+1,08)gb

Предпрослушивание: lp1,mp3-190


Предпрослушивание: lp2,mp3-190


Список композиций:
Side 1 :
1. Shine on you crazy diamond
2. Learning to fly
3. Yet another movie
4. Round and around

Side 2 :
5. Sorrow
6. The dogs of war
7. On the turning away

Side 3 :
8. One of these days
9. Time
10. Money
11. Another brick in the wall

Side 4 :
12. Wish you were here
13. Comfortably numb
14. Run like hell







Скачать Pink Floyd - Delicate Sound of Thunber (live)(1988)2lp:

ПАРОЛЬ:ollleg001
Внимание! У вас нет прав для просмотра скрытого текста.

Изменил: Ollleg по причине: ОЦИФРОВАНО НА НОВОМ КОРРЕ И ИГЛЕ

Релиз понравился ? Скажи автору спасибо !

Категория: Vinyl Rip, Rock, Art-rock, Hard-rock

Уважаемый посетитель, Вы зашли на сайт как незарегистрированный пользователь.
Мы рекомендуем Вам зарегистрироваться либо войти на сайт под своим именем.
<
  • 47 комментариев
  • 0 публикаций
  • ICQ:
30 октября 2014 16:16

Игорь_БЦ

  • Группа: Ветеран проекта
  • Регистрация: 20.08.2012
  • Статус: Пользователь offline
 
Олег, привет! При распаковке второй плиты выдаёт ошибку. Качал с Меги FLAC24-96.

<
  • 542 комментария
  • 105 публикаций
  • ICQ:
3 ноября 2014 02:17

xelena

  • Группа: Главный Редактор
  • Регистрация: 19.07.2012
  • Статус: Пользователь offline
 
Pink Floyd - Delicate Sound of Thunder.cue
---------------------------------------------------------
REM GENRE Rock
REM DATE 1988
REM COMMENT Vinyl-rip by Ollleg
PERFORMER "Pink Floyd"
TITLE "Delicate Sound Of Thunder"
FILE "LP1 PINK FLOYD 1988278.flac" WAVE
TRACK 01 AUDIO
TITLE "Shine On You Crazy Diamond"
INDEX 01 00:00:00
TRACK 02 AUDIO
TITLE "Learning To Fly"
INDEX 01 12:01:00
TRACK 03 AUDIO
TITLE "Yet Another Movie"
INDEX 01 17:23:38
TRACK 04 AUDIO
TITLE "Round And Around"
INDEX 01 23:42:22
TRACK 05 AUDIO
TITLE "Sorrow"
INDEX 01 24:58:50
TRACK 06 AUDIO
TITLE "The Dogs Of War"
INDEX 01 35:02:36
TRACK 07 AUDIO
TITLE "On The Turning Away"
INDEX 01 42:20:18
FILE "LP2 PINK FLOYD 1988279.flac" WAVE
TRACK 08 AUDIO
TITLE "One Of These Days"
INDEX 01 00:00:00
TRACK 09 AUDIO
TITLE "Time"
INDEX 01 06:14:29
TRACK 10 AUDIO
TITLE "Money"
INDEX 01 11:26:27
TRACK 11 AUDIO
TITLE "Another Brick In The Wall Part II"
INDEX 01 21:17:18
TRACK 12 AUDIO
TITLE "Wish You Were There"
INDEX 01 26:51:27
TRACK 13 AUDIO
TITLE "Comfortably Numb"
INDEX 01 31:48:39
TRACK 14 AUDIO
TITLE "Run Like Hell"
INDEX 01 40:44:15

<
  • 1826 комментариев
  • 818 публикаций
  • ICQ:
9 ноября 2014 16:30

Ollleg

  • Группа: Vizitor
  • Регистрация: 14.07.2012
  • Статус: Пользователь offline
 
Цитата: Игорь_БЦ
Олег, привет! При распаковке второй плиты выдаёт ошибку. Качал с Меги FLAC24-96.

Игорь, проверять не стал, просто перезалил на МЕГУ двумя архивами.

Хелена, спасибо за куй!!! smile-27

Информация
Посетители, находящиеся в группе Гости, не могут оставлять комментарии к данной публикации.