» » Yes ‎– Yessongs 1973

 
 
 

Yes ‎– Yessongs 1973

Автор: sofprom от 17-12-2015, 00:48, посмотрело: 1058

4
* LP *



Yes ‎– Yessongs 1973

Yes ‎– Yessongs 1973

Yes ‎– Yessongs 1973

Yes ‎– Yessongs 1973

Yes ‎– Yessongs 1973

Yes ‎– Yessongs 1973

Yes ‎– Yessongs 1973

Yes ‎– Yessongs 1973



Альбом:
Yessongs
Имя исполнителя/ группы:
Yes
Музыкальный жанр/ стиль: Prog Rock, Symphonic Rock
Дата записи/ выхода: 1973
Всего треков: 12
Выпущен фирмой: Atlantic
Каталог №: С 60 14417-18ATL 60 045
Файл раздачи: wav 16/44
Вес архива: 890mb

Preview:


Tracklist:

A1 Opening (Excerpt From Firebird Suite)

Composed By – Igor Stravinsky


A2 Siberian Khatru
A3 Heart Of The Sunrise
B1 Perpetual Change
B2 And You And I: Cord Of Life / Eclipse / The Preacher And The Teacher / Apocalypse
C1 Mood For A Day
C2 Excerpts From The Six Wives Of Henry VIII
C3 Roundabout
D1 I've Seen All Good People
D2 Long Distance Runaround / The Fish
E Close To The Edge: Solid Time Of Change / Total Mass Retain / I Get Up I Get Down / Seasons Of Man
F1 Yours Is No Disgrace
F2 Starship Trooper: Life Seeker / Disillusion / Wurm

Дополнительно:
Оцифровку выполнил: sofprom
Пост-обработка: Нет


Скачать:
Внимание! У вас нет прав для просмотра скрытого текста.

==============

Изменил: Ollleg по причине: Я-Д перезалит

Релиз понравился ? Скажи автору спасибо !

Категория: Vinyl Rip, Rock, Art-rock, Hard-rock

Уважаемый посетитель, Вы зашли на сайт как незарегистрированный пользователь.
Мы рекомендуем Вам зарегистрироваться либо войти на сайт под своим именем.
<
  • 1858 комментариев
  • 811 публикаций
  • ICQ:
18 декабря 2015 19:42

Ollleg

  • Группа: Vizitor
  • Регистрация: 14.07.2012
  • Статус: Пользователь offline
 
я-д перезалит.

sofprom,
с 9 октября 2015 за два с хвостиком месяца Вы выставили на сайт 60 релизов с оцифровками винила!
Спасибо за столь хорошую музыку, знакомую многим с молодых лет. smile-29

smile-41

<
  • 27 комментариев
  • 291 публикация
  • ICQ:
20 декабря 2015 18:12

sofprom

  • Группа: Ветеран проекта
  • Регистрация: 9.10.2015
  • Статус: Пользователь offline
 
Цитата: Ollleg
я-д перезалит.

sofprom,
с 9 октября 2015 за два с хвостиком месяца Вы выставили на сайт 60 релизов с оцифровками винила!
Спасибо за столь хорошую музыку, знакомую многим с молодых лет. smile-29

smile-41


Пожалуйста,надеюсь всем, всё понравилось.. осталось еще 4 метра..

<
  • 426 комментариев
  • 0 публикаций
  • ICQ: 130
3 января 2016 05:56

aktimel

  • Группа: Ветеран проекта
  • Регистрация: 8.11.2012
  • Статус: Пользователь offline
 
спасибо
за этот отличный альбом

<
  • 4 комментария
  • 0 публикаций
  • ICQ:
23 июля 2018 11:28

Kliner

  • Группа: Меломан
  • Регистрация: 19.07.2018
  • Статус: Пользователь offline
 
Если кому cue:

REM DATE 1973
PERFORMER "Yes"
TITLE "Yessongs"
FILE "T001_20151217.wav" WAVE
TRACK 01 AUDIO
TITLE "A1. Opening (Excerpt From 'Firebird Suite')"
INDEX 01 00:00:00
TRACK 02 AUDIO
TITLE "A2. Siberian Khatru"
INDEX 01 03:46:080
TRACK 03 AUDIO
TITLE "A3. Heart Of The Sunrise"
INDEX 01 12:44:00
FILE "T002_20151217.wav" WAVE
TRACK 04 AUDIO
TITLE "B1. Perpetual Change"
INDEX 01 00:00:00
TRACK 05 AUDIO
TITLE "B2. And You And I: Cord Of Life / Eclipse / The Preacher And The Teacher / Apocalypse"
INDEX 01 14:28:00
FILE "T003_20151217.wav" WAVE
TRACK 06 AUDIO
TITLE "C1. Mood For A Day"
INDEX 01 00:00:00
TRACK 07 AUDIO
TITLE "C2. Excerpts From 'The Six Wives Of Henry VIII'"
INDEX 01 02:53:000
TRACK 08 AUDIO
TITLE "C3. Roundabout"
INDEX 01 09:28:000
FILE "T004_20151217.wav" WAVE
TRACK 09 AUDIO
TITLE "D1. Your Move / All Good People"
INDEX 01 00:00:00
TRACK 10 AUDIO
TITLE "D2. Long Distance Runaround / The Fish (Schindleria Praimolurus)"
INDEX 01 07:11:000
FILE "T005_20151217.wav" WAVE
TRACK 11 AUDIO
TITLE "E1. Close To The Edge: Solid Time Of Change / Total Mass Retain / I Get Up I Get Down / Seasons Of Man"
FILE "T006_20151217.wav" WAVE
TRACK 12 AUDIO
TITLE "F1. Yours Is No Disgrace"
INDEX 01 00:00:00
TRACK 13 AUDIO
TITLE "F2. Starship Trooper: Life Seeker / Disillusion / Wurm"
INDEX 01 14:26:000

Информация
Посетители, находящиеся в группе Гости, не могут оставлять комментарии к данной публикации.