» » Ringo Starr ‎– Stop And Smell The Roses 1981

 
 
 

Ringo Starr ‎– Stop And Smell The Roses 1981

Автор: sofprom от 14-12-2015, 23:06, посмотрело: 941

6
* LP *



Ringo Starr ‎– Stop And Smell The Roses 1981

Ringo Starr ‎– Stop And Smell The Roses 1981

Ringo Starr ‎– Stop And Smell The Roses 1981



Альбом:
Stop And Smell The Roses
Имя исполнителя/ группы:
Ringo Starr
Музыкальный жанр/ стиль: Pop Rock, Ballad
Дата записи/ выхода: 1981
Всего треков: 10
Выпущен фирмой: The Boardwalk Entertainment Co
Каталог №: С 60 14417-18260.16.015
Файл раздачи: wav 16/44
Вес архива: 216mb

Preview:

Tracklist:

A1 Private Property 2:44
A2 Wrack My Brain 2:20
A3 Drumming Is My Madness 3:30
A4 Attention 3:18
A5 Stop And Take The Time To Smell The Roses 3:13
B1 Dead Giveaway 4:33
B2 You Belong To Me 2:11
B3 Sure To Fall 3:41
B4 Nice Way 3:34
B5 Back Off Boogaloo 3:16

Дополнительно:
Оцифровку выполнил: sofprom
Пост-обработка: Нет


Скачать:
Внимание! У вас нет прав для просмотра скрытого текста.

==============

Изменил: Ollleg по причине: добавлен cue, архив перезалит

Релиз понравился ? Скажи автору спасибо !

Категория: Vinyl Rip, Rock, Art-rock, Hard-rock

Уважаемый посетитель, Вы зашли на сайт как незарегистрированный пользователь.
Мы рекомендуем Вам зарегистрироваться либо войти на сайт под своим именем.
<
  • 32 комментария
  • 27 публикаций
  • ICQ:
15 декабря 2015 23:05

Ciceronn

  • Группа: Релизёр
  • Регистрация: 12.12.2015
  • Статус: Пользователь offline
 
Вот куй

<
  • 1858 комментариев
  • 811 публикаций
  • ICQ:
18 декабря 2015 18:12

Ollleg

  • Группа: Vizitor
  • Регистрация: 14.07.2012
  • Статус: Пользователь offline
 
Цитата: Ciceronn
Вот куй

sofprom , Ciceronn,
Спасибо.

я-д перезалит

<
  • 426 комментариев
  • 0 публикаций
  • ICQ: 130
15 января 2016 05:08

aktimel

  • Группа: Ветеран проекта
  • Регистрация: 8.11.2012
  • Статус: Пользователь offline
 
спасибо
старый добрый Ринго smile-62

<
  • 4 комментария
  • 0 публикаций
  • ICQ:
22 июля 2018 20:40

Kliner

  • Группа: Меломан
  • Регистрация: 19.07.2018
  • Статус: Пользователь offline
 
Если кому cue:

REM GENRE beat
REM DATE 1981
PERFORMER "Ringo Starr"
TITLE "Stop And Smell The Roses "
FILE "01.wav" WAVE
TRACK 01 AUDIO
TITLE "A1. Private Property"
INDEX 01 00:00:00
TRACK 02 AUDIO
TITLE "A2. Wrack My Brain"
INDEX 01 02:43:60
TRACK 03 AUDIO
TITLE "A3. Drumming Is My Madness"
INDEX 01 05:03:00
TRACK 04 AUDIO
TITLE "A4. Attention"
INDEX 01 08:31:00
TRACK 05 AUDIO
TITLE "A5.0 Stop And Take The Time To Smell The Roses"
INDEX 01 11:50:00
FILE "02.wav" WAVE
TRACK 06 AUDIO
TITLE "B1. Dead Giveaway"
INDEX 01 00:00:00
TRACK 07 AUDIO
TITLE "B2. You Belong To Me"
INDEX 01 04:32:00
TRACK 08 AUDIO
TITLE "B3. Sure To Fall"
INDEX 01 06:42:00
TRACK 09 AUDIO
TITLE "B4. Nice Way"
INDEX 01 10:23:00
TRACK 10 AUDIO
TITLE "B5. Back Off Boogaloo"
INDEX 01 13:54:00

Простите, не знаю как здесь спрятать длинный текст.

<
  • 77 комментариев
  • 2 публикации
  • ICQ:
23 июля 2018 00:30

ALAX

  • Группа: Релизёр
  • Регистрация: 29.11.2014
  • Статус: Пользователь offline
 
Извините, а что дальше с текстом делать? Что бы куй заработал.

<
  • 4 комментария
  • 0 публикаций
  • ICQ:
23 июля 2018 08:31

Kliner

  • Группа: Меломан
  • Регистрация: 19.07.2018
  • Статус: Пользователь offline
 
Блокнотом создайте .txt, скопируйте туда эти данные, закройте, переименуйте в .cue. Всё.

Информация
Посетители, находящиеся в группе Гости, не могут оставлять комментарии к данной публикации.