» » Casiopea - Casiopea (1979)

 
 
 

Casiopea - Casiopea (1979)

Автор: sergjazz от 25-09-2015, 20:18, посмотрело: 2134

4
* LP *



Casiopea - Casiopea (1979)



Альбом:
Casiopea
Имя исполнителя/ группы:
Casiopea
Музыкальный жанр/ стиль: Jazz Rock, Fusion
Дата записи/ выхода: 1979г
Всего треков: 8
Выпущен фирмой: Alfa
Каталог №: ALR-6017
Файл раздачи: flac 24/96
Вес архива: 713mb

Preview:


Tracklist:
Casiopea - Casiopea (1979)

Casiopea - Casiopea (1979)

Дополнительно:
Оцифровку выполнил: sergjazz (личная коллекция lp)
Проигрыватель: Technics SL D3
Звукосниматель: Technics 270C
Корректор: Dual TVV47
Звуковая аудиокарта: Creative SB Audigy 2 SZ Platinum Pro
Оцифрован программой: Adobe Audition 3.0
Пост-обработка: без обработки


Скачать:
Внимание! У вас нет прав для просмотра скрытого текста.

==============

Релиз понравился ? Скажи автору спасибо !

Категория: Vinyl Rip, Jazz, Blues, Soul

Уважаемый посетитель, Вы зашли на сайт как незарегистрированный пользователь.
Мы рекомендуем Вам зарегистрироваться либо войти на сайт под своим именем.
<
  • 557 комментариев
  • 102 публикации
  • ICQ:
27 сентября 2015 18:07

xelena

  • Группа: ГЛАВНЫЙ РЕДАКТОР
  • Регистрация: 19.07.2012
  • Статус: Пользователь offline
 
Отличная команда! smile-29 Спасибо! smile-28

<
  • 202 комментария
  • 434 публикации
  • ICQ:
27 сентября 2015 19:44

sergjazz

  • Группа: VIP
  • Регистрация: 16.03.2014
  • Статус: Пользователь offline
 
Цитата: xelena
Отличная команда! smile-29 Спасибо! smile-28


скоро еще несколько альбомов smile-09

<
  • 557 комментариев
  • 102 публикации
  • ICQ:
27 сентября 2015 21:37

xelena

  • Группа: ГЛАВНЫЙ РЕДАКТОР
  • Регистрация: 19.07.2012
  • Статус: Пользователь offline
 
Цитата: sergjazz


скоро еще несколько альбомов smile-09

-=ОТЛИЧНО=-

<
  • 5 комментариев
  • 0 публикаций
  • ICQ:
17 марта 2020 15:14

Владимиртайт

  • Группа: Меломан
  • Регистрация: 28.12.2018
  • Статус: Пользователь offline
 
Не смог скачать cue. Предлагаю свой.

PERFORMER "Casiopea"
TITLE "Casiopea (1979)"
FILE "Untitled.flac" WAVE
TRACK 01 AUDIO
TITLE "Time Limit"
INDEX 01 00:00:00
TRACK 02 AUDIO
TITLE "Tears Of The Star"
INDEX 01 03:06:00

TRACK 03 AUDIO
TITLE "Space Road"
INDEX 01 07:38:00

TRACK 04 AUDIO
TITLE "Midnight Rendezvous"
INDEX 01 12:52:00

TRACK 05 AUDIO
TITLE "Far Away"
INDEX 01 18:09:00

TRACK 06 AUDIO
TITLE "Swallow"
INDEX 01 22:09:00

TRACK 07 AUDIO
TITLE "Dream Hill"
INDEX 01 26:35:00

TRACK 08 AUDIO
TITLE "Black Jake"
INDEX 01 32:14:00

Информация
Посетители, находящиеся в группе Гости, не могут оставлять комментарии к данной публикации.