» » Led Zeppelin - Stairway to heaven 1988 (1970-71)

 
 
 

Led Zeppelin - Stairway to heaven 1988 (1970-71)

Автор: Ollleg от 1-04-2015, 13:36, посмотрело: 2810

6
Vinylrip by Ollleg



Led Zeppelin - Stairway to heaven 1988 (1970-71)

Led Zeppelin - Stairway to heaven 1988 (1970-71)
Led Zeppelin - Stairway to heaven 1988 (1970-71)
Led Zeppelin - Stairway to heaven 1988 (1970-71)
Led Zeppelin - Stairway to heaven 1988 (1970-71)

Led Zeppelin - Лестница на небеса

Название:
Stairway to heaven
Исполнитель:
Led Zeppelin
Жанр: Rock

Год выпуска: 1988 г. Записи 1970-1971 г.
Количество композиций: 7
Фирма:
Мелодия, 1988 г. Записи 1970-1971 г.
С60 27501 005. Ленинградский ЗГ, 1989 г.
Альбом является компиляцией III и безымянного (четвёртого) альбомов Led Zeppelin.
По западным стандартам пластинка является пиратской.
Записано Direct Metal Mastering
- на те времена это был самый лучший способ изготовления виниловых пластинок.



Формат: wav + lossless + mp3
Качество: wav 32float/96 + flac 24-96 + mp3-320
Размер файла: 1,67gb + 815mb + 94Mb (3% Восстановление)


Предпрослушка: mp3 cbr 320 kbps


Список композиций:
Сторона 1
1. Песня иммигрантов (Immigrnt Song)
2. Виселица (Gallows Pole)
3. С тех пор, как я тебя люблю (Since I've Been Loving You)
4. Чёрный пёс (Black Dog)

Сторона 2
1. Когда рухнет плотина (When The Levee Breaks)
2. Рок-н-ролл (Rock And Roll)
3. Лестница на небеса (Stairway To Heaven)



Внимание! У вас нет прав для просмотра скрытого текста.






CUE:

Код:

REM GENRE "Rock"
REM DATE 1970-71
REM COMMENT "Оцифровка - Ollleg"
TITLE "Stairway To Heaven"
PERFORMER "Led Zeppelin"
FILE "Led Zeppelin 1970-71 v2477.flac" WAVE
TRACK 01 AUDIO
TITLE "Immigrnt Song"
PERFORMER "Led Zeppelin"
INDEX 01 00:00:00
TRACK 02 AUDIO
TITLE "Gallows Pole"
PERFORMER "Led Zeppelin"
INDEX 01 02:25:55
TRACK 03 AUDIO
TITLE "Since I've Been Loving You"
PERFORMER "Led Zeppelin"
INDEX 01 07:27:03
TRACK 04 AUDIO
TITLE "Black Dog"
PERFORMER "Led Zeppelin"
INDEX 01 14:55:01
TRACK 05 AUDIO
TITLE "When The Levee Breaks"
PERFORMER "Led Zeppelin"
INDEX 01 19:48:53
TRACK 06 AUDIO
TITLE "Rock And Roll"
PERFORMER "Led Zeppelin"
INDEX 01 26:59:64
TRACK 07 AUDIO
TITLE "Stairway To Heaven"
PERFORMER "Led Zeppelin"
INDEX 01 30:44:22

Внимание! У вас нет прав для просмотра скрытого текста.


Для *.wav файла надо заменить
FILE "Led Zeppelin 1970-71 v2477.flac" WAVE
на
FILE "***.wav" WAVE
то есть, на название wav файла, один в один

Изменил: Ollleg по причине: Переоциф. нет времени пока, выст. старая оцифровка

Релиз понравился ? Скажи автору спасибо !

Категория: Vinyl Rip, Rock, Art-rock, Hard-rock

Уважаемый посетитель, Вы зашли на сайт как незарегистрированный пользователь.
Мы рекомендуем Вам зарегистрироваться либо войти на сайт под своим именем.
<
  • 193 комментария
  • 381 публикация
  • ICQ:
29 декабря 2014 16:10

sergjazz

  • Группа: VIP
  • Регистрация: 16.03.2014
  • Статус: Пользователь offline
 
Привет Ollleg от куда такая информация Записано Direct Metal Mastering
- на те времена это был самый лучший способ изготовления виниловых пластинок.

<
  • 1528 комментариев
  • 699 публикаций
  • ICQ:
29 декабря 2014 16:17

Ollleg

  • Группа: Vizitor
  • Регистрация: 14.07.2012
  • Статус: Пользователь offline
 
Цитата: sergjazz
Привет Ollleg от куда такая информация Записано Direct Metal Mastering
- на те времена это был самый лучший способ изготовления виниловых пластинок.

Серж, привет.
лень было трек-лист самому печатать- нашёл на ру.трекере- там чел отписал - оттуда и взял инфу, поверил на слово...
Альбом является компиляцией III и безымянного (четвёртого) альбомов Led Zeppelin. По западным стандартам пластинка является пиратской.
Записано Direct Metal Mastering - на те времена это был самый лучший способ изготовления виниловых пластинок.
Дейв Льюис (Dave Lewis) в книге "A Celebration Day" отмечает этот альбом в списке 100 вещей, которые должен иметь в своей коллекции всякий уважаеющий себя цеппелиноман. Он пишет, что самыми редкими являются издания Лениградского и Ташкентского заводов грамзаписи.



smile-61


<
  • 193 комментария
  • 381 публикация
  • ICQ:
29 декабря 2014 16:25

sergjazz

  • Группа: VIP
  • Регистрация: 16.03.2014
  • Статус: Пользователь offline
 
насчет direct metal/ скорее всего заблуждения . а вот то что Ташкентский завод это да. много пластинок этого завода в розыске у людей. хотя качество не всегда ожидает лучшего. не давно вот так не зная человеку продал Ласкоый май Ташкентского завода ам не зная его цены за 20 ублей. хотя не обидно ценности мне он не представляет

<
  • 1528 комментариев
  • 699 публикаций
  • ICQ:
29 декабря 2014 16:33

Ollleg

  • Группа: Vizitor
  • Регистрация: 14.07.2012
  • Статус: Пользователь offline
 
Цитата: sergjazz
насчет direct metal/ скорее всего заблуждения . а вот то что Ташкентский завод это да. много пластинок этого завода в розыске у людей. хотя качество не всегда ожидает лучшего.

Херня всё это полная! Матрицы для всех заводов Мелодии изготавливали на одном предприятии : Закрытое КБ завода в городе Химках, оттуда они рассылались на разные филиалы Мелодии для печатки винила.
Миф - он и есть миф smile-33
Так же как не отличались первые прессы от вторых и третьих по цвету пятаков, какая краска была- такие пятаки и лепили.... smile-61

<
  • 193 комментария
  • 381 публикация
  • ICQ:
29 декабря 2014 16:42

sergjazz

  • Группа: VIP
  • Регистрация: 16.03.2014
  • Статус: Пользователь offline
 
я тоже так думаю. нов от прессы отличались и конечно не от пятоков. потому и говорю что ташкентский завод не ахти хоть первый хоть 10. у них качество бывает хуже ее из за материала. да и сами станки пчатали наверное кое как. есть Арсенал пластинка. нулевая очень. а на первых двух дорожках бухтит раз в 30 секунд

<
  • 193 комментария
  • 381 публикация
  • ICQ:
29 декабря 2014 23:05

sergjazz

  • Группа: VIP
  • Регистрация: 16.03.2014
  • Статус: Пользователь offline
 
Since I've Been Loving You smile-29 классная вещь. по мне на порядок лучшее чем Stairway To Heaven

Информация
Посетители, находящиеся в группе Гости, не могут оставлять комментарии к данной публикации.