» » Led Zeppelin I 1969

 
 
 

Led Zeppelin I 1969

Автор: Ollleg от 1-04-2015, 13:34, посмотрело: 1557

5
Vinylrip by Ollleg



Led Zeppelin I 1969

Led Zeppelin I 1969
Led Zeppelin I 1969
Led Zeppelin I 1969

Название:
Led Zeppelin
Исполнитель:
Led Zeppelin
Жанр: Rock

Год выпуска: 1991 (запись 1969)
Количество композиций: 9
Фирма: Антроп
П91 00149

Формат: wav + lossless + mp3
Качество: wav 32float/96 + flac 24-96 + mp3-320
Размер файла: 1,5gb + 999mb + 104Mb (3% Восстановление)


Предпрослушка: mp3 cbr 320 kbps

Список композиций:
01. Good Times Bad Times
02. Babe I'm Gonna Leave You
03. You Shook Me
04. Dazed and Confused
05. Your Time Is Gonna Come
06. Black Mountain Side
07. Communication Breakdown
08. I Can't Quit You Baby
09. How Many More Times



Внимание! У вас нет прав для просмотра скрытого текста.



REM GENRE "Rock"
REM DATE 1969
REM COMMENT "Оцифровка - Ollleg"
TITLE "Led Zeppelin I 1969"
PERFORMER "Led Zeppelin I"
FILE "Led Zeppelin 000====norm=.flac" WAVE
TRACK 01 AUDIO
TITLE "Good Times Bad Times"
PERFORMER "Led Zeppelin I"
INDEX 01 00:00:00
TRACK 02 AUDIO
TITLE "Babe I'm Gonna Leave You"
PERFORMER "Led Zeppelin I"
INDEX 01 02:45:27
TRACK 03 AUDIO
TITLE "You Shook Me"
PERFORMER "Led Zeppelin I"
INDEX 01 09:28:73
TRACK 04 AUDIO
TITLE "Dazed and Confused"
PERFORMER "Led Zeppelin I"
INDEX 01 15:58:05
TRACK 05 AUDIO
TITLE "Your Time Is Gonna Come"
PERFORMER "Led Zeppelin I"
INDEX 01 22:25:01
TRACK 06 AUDIO
TITLE "Black Mountain Side"
PERFORMER "Led Zeppelin I"
INDEX 01 27:06:72
TRACK 07 AUDIO
TITLE "Communication Breakdown"
PERFORMER "Led Zeppelin I"
INDEX 01 29:13:05
TRACK 08 AUDIO
TITLE "I Can't Quit You Baby"
PERFORMER "Led Zeppelin I"
INDEX 01 31:42:60
TRACK 09 AUDIO
TITLE "How Many More Times"
PERFORMER "Led Zeppelin I"
INDEX 01 36:26:36

Изменил: Ollleg по причине: Переоциф. нет времени пока, выст. старая оцифровка

Релиз понравился ? Скажи автору спасибо !

Теги: Led Zeppelin I

Категория: Vinyl Rip, Rock, Art-rock, Hard-rock

Уважаемый посетитель, Вы зашли на сайт как незарегистрированный пользователь.
Мы рекомендуем Вам зарегистрироваться либо войти на сайт под своим именем.
<
  • 509 комментариев
  • 104 публикации
  • ICQ:
29 декабря 2014 07:37

xelena

  • Группа: Главный Редактор
  • Регистрация: 19.07.2012
  • Статус: Пользователь offline
 
Отлично! Спасибо!

<
  • 192 комментария
  • 381 публикация
  • ICQ:
29 декабря 2014 16:13

sergjazz

  • Группа: VIP
  • Регистрация: 16.03.2014
  • Статус: Пользователь offline
 
отличный эпичный альбом. есть только на CD ремастер PAGE И Japan. надо на виниле. сравнить бы качество антропа с 1 или хотя бы другими переизданиями на виниле

<
  • 1519 комментариев
  • 695 публикаций
  • ICQ:
29 декабря 2014 17:37

Ollleg

  • Группа: Vizitor
  • Регистрация: 14.07.2012
  • Статус: Пользователь offline
 
есть ремастер на 180 гр. Сравнивал - там ярче, но чего то не хватает (для меня)

<
  • 273 комментария
  • 0 публикаций
  • ICQ: 130
29 декабря 2014 18:33

aktimel

  • Группа: Ветеран проекта
  • Регистрация: 8.11.2012
  • Статус: Пользователь offline
 
спасибо
32-96 всегда сочней звучит

<
  • 1519 комментариев
  • 695 публикаций
  • ICQ:
29 декабря 2014 18:39

Ollleg

  • Группа: Vizitor
  • Регистрация: 14.07.2012
  • Статус: Пользователь offline
 
Эдуард, он по низам получше ещё, хоть и float ....

п.с. ещё 2 двойника на подходе- антроповские

Информация
Посетители, находящиеся в группе Гости, не могут оставлять комментарии к данной публикации.