» » Пикник - Родом ниоткуда 1989 (1988)

 
 
 

Пикник - Родом ниоткуда 1989 (1988)

Автор: Ollleg от 22-12-2014, 23:35, посмотрело: 3747

2
Vinylrip by Ollleg



Пикник - Родом ниоткуда 1989 (1988)

Пикник - Родом ниоткуда 1989 (1988)
Пикник - Родом ниоткуда 1989 (1988)
Пикник - Родом ниоткуда 1989 (1988)
Пикник - Родом ниоткуда 1989 (1988)


Название:
Родом ниоткуда
Исполнитель:
Пикник
Жанр: Rock

Год выпуска: 1989 (запись 1988)
Количество композиций: 8 (одним файлом 2 стороны )
Фирма:
Мелодия
STEREO C60 28893 008


Формат: wav + mp3
Качество: wav 32float/96 + mp3-320
Размер файла: 1,63gb + 91Mb (3% Восстановление)

Предпрослушка: mp3 cbr 320 kbps


Список композиций:
Сторона 1

01 Я НЕВИДИМ
02 ИНТЕРЕСНО
03 НЕТ БЕРЕГОВ
04 РОМАНС

Сторона 2

05 ЭТО ОН
06 СТОЯ НА ЭТОЙ ЛЕСТНИЦЕ
07 ДАЙ СЕБЯ СОРВАТЬ
08 ВСЁ ОСТАЛЬНОЕ - ДЫМ




Записано 1 файлом, cue отсутствует в раздаче

Внимание! У вас нет прав для просмотра скрытого текста.


Релиз понравился ? Скажи автору спасибо !

Категория: Vinyl Rip, Rock, Art-rock, Hard-rock

Уважаемый посетитель, Вы зашли на сайт как незарегистрированный пользователь.
Мы рекомендуем Вам зарегистрироваться либо войти на сайт под своим именем.
<
  • 1527 комментариев
  • 699 публикаций
  • ICQ:
23 декабря 2014 00:03

Ollleg

  • Группа: Vizitor
  • Регистрация: 14.07.2012
  • Статус: Пользователь offline
 
тестовый режим

<
  • 509 комментариев
  • 104 публикации
  • ICQ:
27 декабря 2014 13:07

xelena

  • Группа: Главный Редактор
  • Регистрация: 19.07.2012
  • Статус: Пользователь offline
 
REM GENRE Rock
REM DATE 1989
REM COMMENT Vinylrip by Ollleg
PERFORMER "Пикник"
TITLE "Родом Ниоткуда"
FILE "PICNIK 2 1988452455.wav" WAVE
TRACK 01 AUDIO
TITLE "Я Невидим"
INDEX 01 00:00:00
TRACK 02 AUDIO
TITLE "Интересно"
INDEX 01 06:17:72
TRACK 03 AUDIO
TITLE "Нет Берегов"
INDEX 01 12:02:48
TRACK 04 AUDIO
TITLE "Романс"
INDEX 01 17:10:71
TRACK 05 AUDIO
TITLE "Это Он"
INDEX 01 19:45:05
TRACK 06 AUDIO
TITLE "Стоя На Этой Лестнице"
INDEX 01 24:27:01
TRACK 07 AUDIO
TITLE "Дай Себя Сорвать"
INDEX 01 29:35:73
TRACK 08 AUDIO
TITLE "Всё Остальное — Дым"
INDEX 01 34:43:12

Информация
Посетители, находящиеся в группе Гости, не могут оставлять комментарии к данной публикации.