» » JESUS CHRIST SUPERSTAR 1970 (1991)

 
 
 

JESUS CHRIST SUPERSTAR 1970 (1991)

Автор: Ollleg от 12-11-2014, 23:33, посмотрело: 4032

9
Vinylrip by Ollleg



JESUS CHRIST SUPERSTAR 1970 (1991)

JESUS CHRIST SUPERSTAR 1970 (1991)
JESUS CHRIST SUPERSTAR 1970 (1991)
JESUS CHRIST SUPERSTAR 1970 (1991)
JESUS CHRIST SUPERSTAR 1970 (1991)

Название:
JESUS CHRIST SUPERSTAR
Исполнитель:
VA
Жанр: Rock

Год выпуска: 1970
Количество композиций: 23 (2LP)
Фирма:
ANTROP
П91 00029

Формат: wav + lossless + mp3
Качество: wav 32float/96 + flac 24/96 + mp3-320
Размер файла: 2,81gb + 1,74gb + 196Mb (3% Восстановление)

Предпрослушка: mp3 cbr 320 kbps lp1


Предпрослушка: mp3 cbr 320 kbps lp2

Список композиций:
JESUS CHRIST SUPERSTAR 1970 (1991)
JESUS CHRIST SUPERSTAR 1970 (1991)
JESUS CHRIST SUPERSTAR 1970 (1991)




Записано 2 файлами, cue отсутствует в раздаче

Внимание! У вас нет прав для просмотра скрытого текста.


Релиз понравился ? Скажи автору спасибо !

Категория: Vinyl Rip, Rock, Art-rock, Hard-rock

Уважаемый посетитель, Вы зашли на сайт как незарегистрированный пользователь.
Мы рекомендуем Вам зарегистрироваться либо войти на сайт под своим именем.
<
  • 55 комментариев
  • 85 публикаций
  • ICQ:
13 ноября 2014 07:19

digital

  • Группа: Релизёр
  • Регистрация: 6.04.2014
  • Статус: Пользователь offline
 
Спасибо!
Ты мне напомнил, что где-то на полке есть такой же американец, причём 1977 года издания. Я такого (и с такими "пятаками") даже в discogs не нашёл. Цифрануть что-ли, за одно переслушать... smile-41
Кстати, я когда-то сравнивал антроповский вариант (тоже есть такой) со своим штатовским - разницы, честно говоря, особой не услышал. На "фирме" так же глухо звучит левый канал. Наверное, выложу для сравнения.
smile-33

<
  • 509 комментариев
  • 104 публикации
  • ICQ:
13 ноября 2014 08:12

xelena

  • Группа: Главный Редактор
  • Регистрация: 19.07.2012
  • Статус: Пользователь offline
 
С П А С И Б О !

<
  • 1519 комментариев
  • 695 публикаций
  • ICQ:
13 ноября 2014 13:47

Ollleg

  • Группа: Vizitor
  • Регистрация: 14.07.2012
  • Статус: Пользователь offline
 
Руслан, конечно хорошо выложить и фирму! Этот диск мне подогнали на оцифровку, как я понял - Тропила довольно неплохо передирал, хотя каких только отзывов не услышишь в сети.....
smile-33
Да. глуховат малость, но у меня вполне сносно звучит. smile-41

Цитата: xelena
С П А С И Б О !

Рад, что нужно !

<
  • 509 комментариев
  • 104 публикации
  • ICQ:
13 ноября 2014 22:11

xelena

  • Группа: Главный Редактор
  • Регистрация: 19.07.2012
  • Статус: Пользователь offline
 
REM GENRE Rock
REM DATE 1970
REM COMMENT AnTrop – П91 00029 (1991) Vinylrip by Ollleg
PERFORMER "Andrew Lloyd Webber & Tim Rice"
TITLE "Jesus Christ Superstar - A Rock Opera"
FILE "LP1 JESUS CHRIST SUPERSTAR285.wav" WAVE
TRACK 01 AUDIO
TITLE "Увертюра / Overture"
INDEX 01 00:00:00
TRACK 02 AUDIO
TITLE "Царство Небесное / Heaven On Their Minds"
INDEX 01 03:58:52
TRACK 03 AUDIO
TITLE "Что За Шум - Странное Таинственное Явление / What's The Buzz - Strange Thing Mystifying"
INDEX 01 08:20:01
TRACK 04 AUDIO
TITLE "Все В Порядке / Everythings All Right"
INDEX 01 12:33:52
TRACK 05 AUDIO
TITLE "Он Должен Умереть / This Jesus Must Die"
INDEX 01 17:46:74
TRACK 06 AUDIO
TITLE "Осанна / Hosanna"
INDEX 01 21:19:58
TRACK 07 AUDIO
TITLE "Симон Зилот - Бедный Иерусалим / Simon Zealotes - Poor Jerusalem"
INDEX 01 23:28:45
TRACK 08 AUDIO
TITLE "Сон Пилата / Pilate's Dream"
INDEX 01 27:45:31
TRACK 09 AUDIO
TITLE "Храм / The Temple"
INDEX 01 29:12:46
TRACK 10 AUDIO
TITLE "Все В Порядке / Everything's Alright"
INDEX 01 33:55:31
TRACK 11 AUDIO
TITLE "Я Не Знаю, Как Его Любить / I Don't Know How To Love Him"
INDEX 01 34:29:38
TRACK 12 AUDIO
TITLE "Проклят Навсегда - Кровавые Деньги / Damned For All Time - Blood Money"
INDEX 01 38:04:36
FILE "LP2 JESUS CHRIST SUPERSTAR286.wav" WAVE
TRACK 13 AUDIO
TITLE "Тайная Вечеря / The Last Super"
INDEX 01 00:00:00
TRACK 14 AUDIO
TITLE "Гефсиманский Сад (Я Только Хотел Сказать)/Gethsemane (I Only Want To Say)"
INDEX 01 07:07:07
TRACK 15 AUDIO
TITLE "Арест / The Arrest"
INDEX 01 12:39:54
TRACK 16 AUDIO
TITLE "Отречение Петра / Peter's Denial"
INDEX 01 16:00:16
TRACK 17 AUDIO
TITLE "Пилат И Христос / Pilate And Christ"
INDEX 01 17:28:49
TRACK 18 AUDIO
TITLE "Песня Царя Ирода (Имеющий Глаза, Да Увидит) / King Herod's Song"
INDEX 01 20:12:15
TRACK 19 AUDIO
TITLE "Смерть Иуды / Judas' Death"
INDEX 01 23:13:13
TRACK 20 AUDIO
TITLE "Суд Пилата (Бичевание) / Trial Before Pilate"
INDEX 01 27:27:60
TRACK 21 AUDIO
TITLE "Суперзвезда / Superstar"
INDEX 01 32:40:23
TRACK 22 AUDIO
TITLE "Распятие / Crucifixion"
INDEX 01 36:55:67
TRACK 23 AUDIO
TITLE "Евангелие От Иоанна (19 Гл., 41 Стих) / John Nineteen- Forty One"
INDEX 01 41:00:02

<
  • 1519 комментариев
  • 695 публикаций
  • ICQ:
13 ноября 2014 22:13

Ollleg

  • Группа: Vizitor
  • Регистрация: 14.07.2012
  • Статус: Пользователь offline
 
Хелена! Спасибо огромное! Дайте куй ещё у Николая на сайте, а я с вашего позволения Дмитрию на онлайн занесу?
Спасибо, драгоценная Вы наша! smile-27

<
  • 509 комментариев
  • 104 публикации
  • ICQ:
13 ноября 2014 22:21

xelena

  • Группа: Главный Редактор
  • Регистрация: 19.07.2012
  • Статус: Пользователь offline
 
Ладненько, сейчас скину в комментариях на пластинке. орг.

<
  • 1519 комментариев
  • 695 публикаций
  • ICQ:
13 ноября 2014 23:01

Ollleg

  • Группа: Vizitor
  • Регистрация: 14.07.2012
  • Статус: Пользователь offline
 
Спасибо- уже вижу! smile-28

<
  • 7 комментариев
  • 0 публикаций
  • ICQ:
18 ноября 2014 11:54

fayfish

  • Группа: Ветеран проекта
  • Регистрация: 6.08.2013
  • Статус: Пользователь offline
 
WOW smile-28

<
  • 2 комментария
  • 0 публикаций
  • ICQ:
14 декабря 2014 19:02

110136

  • Группа: Ветеран проекта
  • Регистрация: 12.10.2014
  • Статус: Пользователь offline
 
Мечтал послушать в waw этот диск. Спасибо.

Информация
Посетители, находящиеся в группе Гости, не могут оставлять комментарии к данной публикации.