» » Black Sabbath - Paranoid 1970

 
 
 

Black Sabbath - Paranoid 1970

Автор: Ollleg от 11-11-2014, 02:40, посмотрело: 3018

4
Vinylrip by Ollleg



Black Sabbath - Paranoid 1970

Black Sabbath - Paranoid 1970
Black Sabbath - Paranoid 1970
Black Sabbath - Paranoid 1970

Название:
Paranoid
Исполнитель:
Black Sabbath
Жанр: Rock

Год выпуска: 1970
Количество композиций: 7
Фирма:
SNC RECORDS
Центр
Стаса Намина

Советская независимая
фирма грамзаписи

STEREO C90 31087 004
Изготовлено по лицензии
фирмы "DAT/STANBET"

Формат: wav + lossless + mp3
Качество: wav 32float/96 + flac 24/96 + mp3-320
Размер файла: 1,26gb + 831Мb + 91Mb (3% Восстановление)

Предпрослушка: mp3 cbr 320 kbps


Список композиций:
Сторона 1

01 War Pigs
02 Paranoid
03 Planet Caravan
04 Electric Funeral

Сторона 2

05 Iron Man
06 Hand of Doom
07 Fairies Wear Boots




Записано 1 файлом, cue отсутствует в раздаче

Внимание! У вас нет прав для просмотра скрытого текста.


Релиз понравился ? Скажи автору спасибо !

Категория: Vinyl Rip, Rock, Art-rock, Hard-rock

Уважаемый посетитель, Вы зашли на сайт как незарегистрированный пользователь.
Мы рекомендуем Вам зарегистрироваться либо войти на сайт под своим именем.
<
  • 541 комментарий
  • 105 публикаций
  • ICQ:
11 ноября 2014 08:50

xelena

  • Группа: Главный Редактор
  • Регистрация: 19.07.2012
  • Статус: Пользователь offline
 
Большое спасибо за Блэк Сэбеты!

<
  • 1825 комментариев
  • 818 публикаций
  • ICQ:
11 ноября 2014 08:57

Ollleg

  • Группа: Vizitor
  • Регистрация: 14.07.2012
  • Статус: Пользователь offline
 
Цитата: xelena
Большое спасибо за Блэк Сэбеты!

Ещё пара будет.

<
  • 541 комментарий
  • 105 публикаций
  • ICQ:
11 ноября 2014 09:11

xelena

  • Группа: Главный Редактор
  • Регистрация: 19.07.2012
  • Статус: Пользователь offline
 
ОТЛИЧНО!!!

<
  • 541 комментарий
  • 105 публикаций
  • ICQ:
27 декабря 2014 13:08

xelena

  • Группа: Главный Редактор
  • Регистрация: 19.07.2012
  • Статус: Пользователь offline
 
REM GENRE Hard Rock
REM DATE 1970
REM COMMENT Vinylrip by Ollleg
PERFORMER "Black Sabbath"
TITLE "Paranoid"
FILE "Black Sabbath - Paranoid 1970283.flac" WAVE
TRACK 01 AUDIO
TITLE "War Pigs"
INDEX 01 00:00:00
TRACK 02 AUDIO
TITLE "Paranoid"
INDEX 01 07:59:59
TRACK 03 AUDIO
TITLE "Planet Caravan"
INDEX 01 10:53:39
TRACK 04 AUDIO
TITLE "Electric Funeral"
INDEX 01 15:24:33
TRACK 05 AUDIO
TITLE "Iron Man"
INDEX 01 20:11:03
TRACK 06 AUDIO
TITLE "Hand of Doom"
INDEX 01 26:13:29
TRACK 07 AUDIO
TITLE "Fairies Wear Boots"
INDEX 01 33:25:66

Информация
Посетители, находящиеся в группе Гости, не могут оставлять комментарии к данной публикации.