» » Black Sabbath - Sabotage 1975

 
 
 

Black Sabbath - Sabotage 1975

Автор: Ollleg от 10-11-2014, 22:35, посмотрело: 2919

2
Vinylrip by Ollleg



Black Sabbath - Sabotage 1975

Black Sabbath - Sabotage 1975
Black Sabbath - Sabotage 1975
Black Sabbath - Sabotage 1975

Название:
Sabotage
Исполнитель:
Black Sabbath
Жанр: Rock

Год выпуска: 1975
Количество композиций: 8
Фирма:
SNC RECORDS
Центр
Стаса Намина

Советская независимая
фирма грамзаписи

STEREO C90 31089 009
Изготовлено по лицензии
фирмы "DAT/STANBET

Формат: wav + lossless + mp3
Качество: wav 32float/96 + flac 24/96 + mp3-320
Размер файла: 1,42gb + 938Мb + 101Mb (3% Восстановление)

Предпрослушка: mp3 cbr 320 kbps


Список композиций:
сторона 1
01 Hole In The Sky
02 Don't Start (Too Late)
03 Megalomania
04 The Thrill Of It All

сторона 2
05 Symptom Of The Universe
06 Supertzar
07 Am I Going Insane (Radio)
08 The Writ




Записано 1 файлом, cue отсутствует в раздаче

Внимание! У вас нет прав для просмотра скрытого текста.


Релиз понравился ? Скажи автору спасибо !

Категория: Vinyl Rip, Rock, Art-rock, Hard-rock

Уважаемый посетитель, Вы зашли на сайт как незарегистрированный пользователь.
Мы рекомендуем Вам зарегистрироваться либо войти на сайт под своим именем.
<
  • 542 комментария
  • 105 публикаций
  • ICQ:
27 декабря 2014 13:08

xelena

  • Группа: Главный Редактор
  • Регистрация: 19.07.2012
  • Статус: Пользователь offline
 
REM DATE 1975
REM GENRE Hard Rock
TITLE "Sabotage"
REM COMMENT Vinylrip by Ollleg
PERFORMER "Black Sabbath"
FILE "Black Sabbath - Sabotage 1975281.flac" WAVE
TRACK 01 AUDIO
TITLE "Hole In The Sky"
PERFORMER "Black Sabbath"
INDEX 01 00:00:00
TRACK 02 AUDIO
TITLE "Don't Start (Too Late)"
PERFORMER "Black Sabbath"
INDEX 01 03:58:55
TRACK 03 AUDIO
TITLE "Megalomania"
PERFORMER "Black Sabbath"
INDEX 01 04:48:31
TRACK 04 AUDIO
TITLE "The Thrill Of It All"
PERFORMER "Black Sabbath"
INDEX 01 14:32:24
TRACK 05 AUDIO
TITLE "Symptom Of The Universe"
PERFORMER "Black Sabbath"
INDEX 01 20:25:66
TRACK 06 AUDIO
TITLE "Supertzar"
PERFORMER "Black Sabbath"
INDEX 01 26:51:40
TRACK 07 AUDIO
TITLE "Am I Going Insane (Radio)"
PERFORMER "Black Sabbath"
INDEX 01 30:39:31
TRACK 08 AUDIO
TITLE "The Writ"
PERFORMER "Black Sabbath"
INDEX 01 34:56:51

<
  • 1 комментарий
  • 3 публикации
  • ICQ:
4 апреля 2015 09:15

alex.walkman

  • Группа: Релизёр
  • Регистрация: 25.09.2012
  • Статус: Пользователь offline
 
Xelena, за .CUE отдельное спасибо ! smile-27

Информация
Посетители, находящиеся в группе Гости, не могут оставлять комментарии к данной публикации.