» » Nazareth - Hair Of The Dog - 1975/2021

 
 
 

Nazareth - Hair Of The Dog - 1975/2021

Автор: burgui от 22-02-2021, 16:32, посмотрело: 201

1
* Hi-Res *

Nazareth - Hair Of The Dog - 1975/2021


Альбом:
Hair Of The Dog
Имя исполнителя/ группы:
Nazareth
Музыкальный жанр/ стиль: Hard Rock
Дата записи/ выхода: 1975/2021
Всего треков: 8
Выпущен фирмой: A&M Records
Каталог №: ----
Файл раздачи: flac 24/96
Вес архива: 876mb


Релиз залит на:
mail.ru

Tracklist:
01. Hair Of The Dog (4:09)
02. Miss Misery (4:41)
03. Love Hurts (3:54)
04. Changin' Times (5:59)
05. Beggars Day (3:46)
06. Rose In The Heather (2:45)
07. Whisky Drinkin' Woman (5:30)
08. Please Don't Judas Me (9:50)

Лог проверки качества

foobar2000 1.6.4 / Замер динамического диапазона (DR) 1.1.1
Дата отчёта: 2021-02-21 22:43:53

--------------------------------------------------------------------------------
Анализ: Nazareth / Hair Of The Dog
--------------------------------------------------------------------------------

DR Пики RMS Продолжительность трека
--------------------------------------------------------------------------------
DR13 -0.30 дБ -15.16 дБ 4:09 01-Hair Of The Dog
DR12 -1.46 дБ -16.10 дБ 4:41 02-Miss Misery
DR13 -1.30 дБ -18.26 дБ 3:54 03-Love Hurts
DR11 -0.60 дБ -14.38 дБ 5:59 04-Changin' Times
DR13 -1.15 дБ -15.21 дБ 3:46 05-Beggars Day
DR12 -2.31 дБ -16.79 дБ 2:45 06-Rose In The Heather
DR13 -0.37 дБ -15.57 дБ 5:30 07-Whisky Drinkin' Woman
DR12 -0.90 дБ -17.37 дБ 9:50 08-Please Don't Judas Me
--------------------------------------------------------------------------------

Количество треков: 8
Реальные значения DR: DR12

Частота: 96000 Гц
Каналов: 2
Разрядность: 24
Битрейт: 2811 кбит/с
Кодек: FLAC

Nazareth - Hair Of The Dog - 1975/2021

Nazareth - Hair Of The Dog - 1975/2021

Большое спасибо Andromaxvic!

Скачать:
Внимание! У вас нет прав для просмотра скрытого текста.


==============

Релиз понравился ? Скажи автору спасибо !

Категория: Rock, Art-rock, Hard-rock

Уважаемый посетитель, Вы зашли на сайт как незарегистрированный пользователь.
Мы рекомендуем Вам зарегистрироваться либо войти на сайт под своим именем.
<
  • 13 комментариев
  • 0 публикаций
  • ICQ:
23 февраля 2021 23:15

Brunet

  • Группа: Ветеран проекта
  • Регистрация: 1.05.2015
  • Статус: Пользователь offline
 
Отменное звучание материала. smile-28

Информация
Посетители, находящиеся в группе Гости, не могут оставлять комментарии к данной публикации.