» » Frankie Goes to Hollywood - Liverpool (1986) Tape rip

 
 
 

Frankie Goes to Hollywood - Liverpool (1986) Tape rip

Автор: sergjazz от 5-05-2014, 11:49, посмотрело: 1314

2
Frankie Goes to Hollywood - Liverpool (1986) Tape rip

Frankie Goes to Hollywood - Liverpool (1986) Tape rip


Название: Liverpool
Исполнитель: Frankie Goes to Hollywood
Жанр: Rock, Art Rock, Electronic
Год выпуска: 1986
Количество композиций: 8
Формат: flac
Качество: lossless 24 bit/96 kHz
Размер файла: 940 Мб


Предпрослушка: mp3 320 kbps
Внимание! У вас нет прав для просмотра скрытого текста.


Список композиций:
01 - Warriors of the Wasteland
02 - Rage Hard
03 - Kill the Pain
04 - Maximum Joy
05 - Watching the Wildlife
06 - Lunar Bay
07 - For Heaven's Sake
08 - Is Anybody Out There?

 CUE



Скачать :
Внимание! У вас нет прав для просмотра скрытого текста.

Релиз понравился ? Скажи автору спасибо !

Категория: Magnitoalbom Rip, Rock, Art-rock, Hard-rock

Уважаемый посетитель, Вы зашли на сайт как незарегистрированный пользователь.
Мы рекомендуем Вам зарегистрироваться либо войти на сайт под своим именем.
<
  • 537 комментариев
  • 105 публикаций
  • ICQ:
5 мая 2014 14:17

xelena

  • Группа: Главный Редактор
  • Регистрация: 19.07.2012
  • Статус: Пользователь offline
 
Frankie Goes to Hollywood - Liverpool (1986)
01 - Warriors of the Wasteland
02 - Rage Hard
03 - Kill the Pain
04 - Maximum Joy
05 - Watching the Wildlife
06 - Lunar Bay
07 - For Heaven's Sake
08 - Is Anybody Out There?
-----------------------------------------------
Untitled4.cue
-----------------------------------------------
REM GENRE Electronic, Rock
REM DATE 1986
REM COMMENT Tape rip by sergjazz (2014)
PERFORMER "Frankie Goes To Hollywood"
TITLE "Liverpool"
FILE "Untitled4.flac" WAVE
TRACK 01 AUDIO
TITLE "Warriors Of The Wasteland"
INDEX 01 00:00:00
TRACK 02 AUDIO
TITLE "Rage Hard"
INDEX 01 04:57:43
TRACK 03 AUDIO
TITLE "Kill The Pain"
INDEX 01 10:09:22
TRACK 04 AUDIO
TITLE "Maximum Joy"
INDEX 01 16:28:37
TRACK 05 AUDIO
TITLE "Watching The Wildlife"
INDEX 01 22:11:73
TRACK 06 AUDIO
TITLE "Lunar Bay"
INDEX 01 26:33:38
TRACK 07 AUDIO
TITLE "For Heaven's Sake"
INDEX 01 32:18:18
TRACK 08 AUDIO
TITLE "Is Anybody Out There?"
INDEX 01 36:50:35

<
  • 200 комментариев
  • 427 публикаций
  • ICQ:
5 мая 2014 15:21

sergjazz

  • Группа: VIP
  • Регистрация: 16.03.2014
  • Статус: Пользователь offline
 
Большое спасибо smile-09

Информация
Посетители, находящиеся в группе Гости, не могут оставлять комментарии к данной публикации.