» » Золотой фонд СССР

 
 
 

Золотой фонд СССР

Автор: Ollleg от 12-04-2014, 09:57, посмотрело: 1517

10
Magnitoalbom-rip by Ollleg




Золотой фонд СССР


Информация о каcсете:
Название: Золотой фонд
Жанр: Retro 30-50x
Количество композиций: 10 треков одним файлом
Количество плёнок: 1 кассета (29 min )
Формат: Lossless
Качество: flac 16 bit/44,1 kHz + mp3-320
Размер файла: 160mb + 67mb (3% на восстановление)

Предпрослушка: mp3 320


Список композиций:
01. Оркестр п/у Александра Цфасмана, солист Павел Михайлов - Утомлённое солнце (Расставание)
02. Изабелла Юрьева - Если можешь, прости
03. Вадим Козин - Осень (Не уходи)
04. Пётр Лещенко - Напев звучит томительно и страстно
05. Леонид Утёсов - Как много девушек хороших (Спасибо, сердце)
06. Георгий Виноградов - Счастье мое
07. Вадим Козин - Дружба (Давай пожмём друг другу руки)
08. Аркадий Погодин - В парке Чаир
09. Изабелла Юрьева - Саша, ты помнишь наши встречи?
10. Оркестр п/у Александра Цфасмана, солист Иван Шмелёв - Мне бесконечно жаль

 cue


Внимание! У вас нет прав для просмотра скрытого текста.

Выражаю искреннюю благодарность
XELENA и digital
за их помощь в составлении
трек-листа и создании CUE
для релиза.

Релиз понравился ? Скажи автору спасибо !

Категория: Magnitoalbom Rip, Retro 40x-60x

Уважаемый посетитель, Вы зашли на сайт как незарегистрированный пользователь.
Мы рекомендуем Вам зарегистрироваться либо войти на сайт под своим именем.
<
  • 510 комментариев
  • 104 публикации
  • ICQ:
12 апреля 2014 10:01

xelena

  • Группа: Главный Редактор
  • Регистрация: 19.07.2012
  • Статус: Пользователь offline
 
Отлично! Качаю!

<
  • 1528 комментариев
  • 699 публикаций
  • ICQ:
12 апреля 2014 10:08

Ollleg

  • Группа: Vizitor
  • Регистрация: 14.07.2012
  • Статус: Пользователь offline
 
Хелена, спасибо.
..но качество там "как есть"....
Внимание! У вас нет прав для просмотра скрытого текста.

<
  • 510 комментариев
  • 104 публикации
  • ICQ:
12 апреля 2014 10:41

xelena

  • Группа: Главный Редактор
  • Регистрация: 19.07.2012
  • Статус: Пользователь offline
 
Прекрасно звучт... переносит в те... годы...Спасибочки!
----------------------------------
Предварительный/рабочий .cue файл
----------------------------------
REM GENRE Retro 30-50x
REM DATE xxxx
REM COMMENT Magnitoalbom-rip by Ollleg
PERFORMER "Various Artists"
TITLE "Золотой фонд СССР"
FILE "Золотой фонд СССР 2db.flac" WAVE
TRACK 01 AUDIO
TITLE "001"
PERFORMER "UNKNOWN_01"
INDEX 01 00:00:00
TRACK 02 AUDIO
TITLE "002"
PERFORMER "UNKNOWN_02"
INDEX 01 02:58:01
TRACK 03 AUDIO
TITLE "003"
PERFORMER "UNKNOWN_03"
INDEX 01 05:57:00
TRACK 04 AUDIO
TITLE "004"
PERFORMER "UNKNOWN_04"
INDEX 01 08:59:19
TRACK 05 AUDIO
TITLE "005"
PERFORMER "UNKNOWN_05"
INDEX 01 12:09:74
TRACK 06 AUDIO
TITLE "006"
PERFORMER "UNKNOWN_06"
INDEX 01 15:28:00
TRACK 07 AUDIO
TITLE "007"
PERFORMER "UNKNOWN_07"
INDEX 01 18:19:19
TRACK 08 AUDIO
TITLE "008"
PERFORMER "UNKNOWN_08"
INDEX 01 20:55:37
TRACK 09 AUDIO
TITLE "009"
PERFORMER "UNKNOWN_09"
INDEX 01 23:21:01
TRACK 10 AUDIO
TITLE "010"
PERFORMER "UNKNOWN_10"
INDEX 01 26:27:38

<
  • 1528 комментариев
  • 699 публикаций
  • ICQ:
12 апреля 2014 11:06

Ollleg

  • Группа: Vizitor
  • Регистрация: 14.07.2012
  • Статус: Пользователь offline
 
xelena. Спасибо!!!
сейчас в пост добавлю куй
или это пока "рабочий вариант"?

<
  • 510 комментариев
  • 104 публикации
  • ICQ:
12 апреля 2014 14:42

xelena

  • Группа: Главный Редактор
  • Регистрация: 19.07.2012
  • Статус: Пользователь offline
 
"рабочий вариант" - я имела ввиду что может трек-лист кто-то подскажет исполнителей и т.д.

<
  • 9 комментариев
  • 1 публикация
  • ICQ:
12 апреля 2014 16:34

svarnoy

  • Группа: Релизёр
  • Регистрация: 29.01.2014
  • Статус: Пользователь offline
 
но качество там "как есть"
и это говорит человек который слушает а не смотрит smile-06

<
  • 55 комментариев
  • 85 публикаций
  • ICQ:
13 апреля 2014 07:17

digital

  • Группа: Релизёр
  • Регистрация: 6.04.2014
  • Статус: Пользователь offline
 
Олег, привет!
Трэклист:
01. Оркестр п/у Александра Цфасмана, солист Павел Михайлов - Утомлённое солнце (Расставание)
02. Изабелла Юрьева - Если можешь, прости
03. Вадим Козин - Осень (Не уходи)
04. Пётр Лещенко - Напев звучит томительно и страстно
05. Леонид Утёсов - Как много девушек хороших (Спасибо, сердце)
06. Георгий Виноградов - Счастье мое
07. Вадим Козин - Дружба (Давай пожмём друг другу руки)
08. Аркадий Погодин - В парке Чаир
09. Изабелла Юрьева - Саша, ты помнишь наши встречи?
10. Оркестр п/у Александра Цфасмана, солист Иван Шмелёв - Мне бесконечно жаль
Я тоже (хоть и апологет тяжёлого рока с более чем сорокалетним стажем) с недавних пор начал получать удовольствие от ретро. Имею, где-то, за три сотни шеллачных и винилитовых пластинок на 78 о/м (а может и больше - не считал, честно говоря). Некоторые ещё не оцифрованы, но, к сожалению, в данный момент ни один из проигрывателей на 78 о/м (переделки) не работоспособны. А то, что уже оцифровал, по-хорошему, надо переделывать - технологии реставрации не стоят на месте и былое качество уже не устраивает (я не сторонник полной аутентичности и "первозданной чистоты" оцифровок).
Под спойлером индексная карта уже с учётом идентифицированных названий трэков и исполнителей. Проверил на foobar-е и AIMPE - работает

А качество, кстати, весьма достойное. Не забываем, что ретро - оно и есть ретро. Хотя в сети могут попадаться аналогичные исполнения и в более лучшем качестве.

<
  • 1528 комментариев
  • 699 публикаций
  • ICQ:
13 апреля 2014 09:31

Ollleg

  • Группа: Vizitor
  • Регистрация: 14.07.2012
  • Статус: Пользователь offline
 
Хелена, Руслан
спасибо большое за вашу помощь!
Релиз обновил уже с вашей
информацией.
smile-09 smile-33

Цитата: digital
Имею, где-то, за три сотни шеллачных и винилитовых пластинок на 78 о/м (а может и больше - не считал, честно говоря). Некоторые ещё не оцифрованы, но, к сожалению, в данный момент ни один из проигрывателей на 78 о/м (переделки) не работоспособны.

Вот и у меня имеется совсем немного пластиночек на 78 (всего 12 штучек smile-61 ) и нет возможности их оцифровать, хотя эта тема довольно интересна. Может со временем как то всё же получиться, создадим отдельную категорию для 78 оборотиков. smile-41

<
  • 55 комментариев
  • 85 публикаций
  • ICQ:
14 апреля 2014 03:38

digital

  • Группа: Релизёр
  • Регистрация: 6.04.2014
  • Статус: Пользователь offline
 
Цитата: Ollleg
Может со временем как то всё же получиться, создадим отдельную категорию для 78 оборотиков.

Олег, я не думаю, что нужно в этом жанре (Ретро) зацикливаться именно на формате (оборотах в минуту и т. п.) носителя. Во-первых, это может быть и магнитоплёнка, как в твоём случае, и CD, и вполне современный винил с ретроподбоками. Во-вторых, первые пластинки (восьми и десятидюймовки) на 33 о/м не менее интересны, чем аналогичные на 78 о/м...
Очень сложно определить временную границу для этого жанра, ибо для каждого она своя - для кого-то и Муслими Магомаев уже ретро...
Вот, как-то так...

<
  • 1528 комментариев
  • 699 публикаций
  • ICQ:
15 апреля 2014 07:44

Ollleg

  • Группа: Vizitor
  • Регистрация: 14.07.2012
  • Статус: Пользователь offline
 
Цитата: digital
Олег, я не думаю, что нужно в этом жанре (Ретро) зацикливаться именно на формате (оборотах в минуту и т. п.) носителя.

Руслан, меньше проблем, значит оставим категории как есть. smile-33

Информация
Посетители, находящиеся в группе Гости, не могут оставлять комментарии к данной публикации.