» » Frank Zappa - Apostrophe (')(1974) Tape rip

 
 
 

Frank Zappa - Apostrophe (')(1974) Tape rip

Автор: sergjazz от 8-04-2014, 16:30, посмотрело: 1243

2
Frank Zappa - Apostrophe (')(1974) Tape rip

Frank Zappa - Apostrophe (')(1974) Tape rip



Название: Apostrophe (')
Исполнитель: Frank Zappa
Жанр: Progressive Rock. Zappa
Год выпуска: 1974
Количество композиций: 1
Формат: flac
Качество: lossless 24 bit/96 kHz
Размер файла: 671.9 Мб


Предпрослушка: mp3 320 kbps


разделения на треки нет. кто сделает куй файл буду благодарен.
Список композиций:
Side one
No. Title Length
1. "Don't Eat the Yellow Snow"
2. "Nanook Rubs It"
3. "St. Alfonzo's Pancake Breakfast"
4. "Father O'Blivion"
5. "Cosmik Debris"
Side two
No. Title Writer(s) Length
1. "Excentrifugal Forz"
2. "Apostrophe'" Frank Zappa, Jim Gordon and Jack Bruce
3. "Uncle Remus" Frank Zappa and George Duke
4. "Stink-Foot"



Скачать :

Внимание! У вас нет прав для просмотра скрытого текста.

Релиз понравился ? Скажи автору спасибо !

Категория: Magnitoalbom Rip, Rock, Art-rock, Hard-rock

Уважаемый посетитель, Вы зашли на сайт как незарегистрированный пользователь.
Мы рекомендуем Вам зарегистрироваться либо войти на сайт под своим именем.
<
  • 537 комментариев
  • 105 публикаций
  • ICQ:
8 апреля 2014 17:02

xelena

  • Группа: Главный Редактор
  • Регистрация: 19.07.2012
  • Статус: Пользователь offline
 
Огромное спасибо!
---------------------------------------------
Frank Zappa (1974) Apostrophe(').cue
---------------------------------------------
REM GENRE Rock, Parody
REM DATE 1974
REM COMMENT Magnito-rip by sergjazz
PERFORMER "Frank Zappa"
TITLE "Apostrophe (')"
FILE "FZ - 1974.flac" WAVE
TRACK 01 AUDIO
TITLE "Don't Eat The Yellow Snow"
INDEX 01 00:00:00
TRACK 02 AUDIO
TITLE "Nanook Rubs It"
INDEX 01 02:03:03
TRACK 03 AUDIO
TITLE "St. Alfonzo's Pancake Breakfast"
INDEX 01 06:36:71
TRACK 04 AUDIO
TITLE "Father O'Blivion"
INDEX 01 08:26:05
TRACK 05 AUDIO
TITLE "Cosmik Debris"
INDEX 01 10:42:23
TRACK 06 AUDIO
TITLE "Excentrifugal Forz"
INDEX 01 14:56:59
TRACK 07 AUDIO
TITLE "Apostrophe'"
INDEX 01 16:28:55
TRACK 08 AUDIO
TITLE "Uncle Remus"
INDEX 01 22:13:30
TRACK 09 AUDIO
TITLE "Stink-Foot"
INDEX 01 25:00:37

<
  • 1802 комментария
  • 814 публикаций
  • ICQ:
12 апреля 2014 08:44

Ollleg

  • Группа: Vizitor
  • Регистрация: 14.07.2012
  • Статус: Пользователь offline
 
Сергей , коллекция рипов с катушек
всегда была интересна, ещё раз спасибо за
колоссальную работу! smile-28

Информация
Посетители, находящиеся в группе Гости, не могут оставлять комментарии к данной публикации.