» » The Grid - Electric Head (1990)

 
 
 

The Grid - Electric Head (1990)

Автор: Ollleg от 21-04-2014, 09:22, посмотрело: 2115

5
Magnitoalbom-rip by Ollleg
+ СD-rip




The Grid - Electric Head (1990)


Информация о каcсете:
Название: The Grid
Жанр: Electronic, New wave
Количество композиций: целиком сторона
Количество плёнок: 1 сторона (47 min )
Фирма: TDK MA110
Формат: Lossless
Качество: flac 16 bit/44,1 kHz + mp3-320
Размер файла: 297mb + 107mb (3% на восстановление)

+ CD-rip 16/44 Flac 306mb

Предпрослушка: mp3 320 magnito-rip
Внимание! У вас нет прав для просмотра скрытого текста.


треклист:
01 - One giant step
02 - Interference
03 - Are you receiving
04 - Islamatron
05 - The traffic
06 - Driving instructor
07 - A beat called love
08 - The first stroke
09 - Central locking
10 - Intergalactica
11 - Beautiful and profound
12 - This must be heaven
13 - Machine delay
14 - Doctor Celine
15 - Typical Waterloo sunset
16 - Strange electric sun
17 - Floatation
18 - Virtual

Внимание! У вас нет прав для просмотра скрытого текста.




Изменил: Ollleg по причине: REPOST

Релиз понравился ? Скажи автору спасибо !

Категория: Magnitoalbom Rip, new wave, Electronic

Уважаемый посетитель, Вы зашли на сайт как незарегистрированный пользователь.
Мы рекомендуем Вам зарегистрироваться либо войти на сайт под своим именем.
<
  • 1528 комментариев
  • 699 публикаций
  • ICQ:
5 апреля 2014 14:11

Ollleg

  • Группа: Vizitor
  • Регистрация: 14.07.2012
  • Статус: Пользователь offline
 
Если кого вдруг заинтересовала оцифровка, пока воздержитесь от скачивания, будет второй вариант, на мой взгляд - более удачный. smile-33

<
  • 510 комментариев
  • 104 публикации
  • ICQ:
6 апреля 2014 15:19

xelena

  • Группа: Главный Редактор
  • Регистрация: 19.07.2012
  • Статус: Пользователь offline
 
Очень понравилось! Спасибо!

<
  • 1528 комментариев
  • 699 публикаций
  • ICQ:
21 апреля 2014 09:35

Ollleg

  • Группа: Vizitor
  • Регистрация: 14.07.2012
  • Статус: Пользователь offline
 
Переоцифрован с нормальной скоростью, добавил СD-rip (взят из сети).
Иногда бывает, услышишь первый диск группы и с нетерпением ждёшь выход второго альбома....
А второй кроме разочарования ничего не приносит, так и с этой группой 90х, чем дальше, тем хуже... smile-06
А жаль, потенциал альбома " Electric Head " 1990 года был многообещающим. smile-29

<
  • 510 комментариев
  • 104 публикации
  • ICQ:
24 апреля 2014 18:37

xelena

  • Группа: Главный Редактор
  • Регистрация: 19.07.2012
  • Статус: Пользователь offline
 
CUE
--------------------------------------------
REM GENRE Electronic, New wave
REM DATE 1990
REM COMMENT Magnitoalbom-rip by Ollleg\(TDK MA110)
PERFORMER "The Grid"
TITLE "Electric Head"
FILE "The Grid 2 1990 -2db.flac" WAVE
TRACK 01 AUDIO
TITLE "One giant step"
INDEX 01 00:00:00
TRACK 02 AUDIO
TITLE "Interference"
INDEX 01 06:11:56
TRACK 03 AUDIO
TITLE "Are you receiving"
INDEX 01 06:46:50
TRACK 04 AUDIO
TITLE "Islamatron"
INDEX 01 11:23:45
TRACK 05 AUDIO
TITLE "The traffic"
INDEX 01 15:00:73
TRACK 06 AUDIO
TITLE "Driving instructor"
INDEX 01 15:15:14
TRACK 07 AUDIO
TITLE "A beat called love"
INDEX 01 19:59:36
TRACK 08 AUDIO
TITLE "The first stroke"
INDEX 01 24:04:62
TRACK 09 AUDIO
TITLE "Central locking"
INDEX 01 24:18:67
TRACK 10 AUDIO
TITLE "Intergalactica"
INDEX 01 25:01:19
TRACK 11 AUDIO
TITLE "Beautiful and profound"
INDEX 01 31:09:34
TRACK 12 AUDIO
TITLE "This must be heaven"
INDEX 01 31:27:63
TRACK 13 AUDIO
TITLE "Machine delay"
INDEX 01 35:46:74
TRACK 14 AUDIO
TITLE "Doctor Celine"
INDEX 01 35:57:05
TRACK 15 AUDIO
TITLE "Typical Waterloo sunset"
INDEX 01 39:40:52
TRACK 16 AUDIO
TITLE "Strange electric sun"
INDEX 01 40:00:15
TRACK 17 AUDIO
TITLE "Floatation"
INDEX 01 44:23:40

<
  • 1528 комментариев
  • 699 публикаций
  • ICQ:
24 апреля 2014 20:57

Ollleg

  • Группа: Vizitor
  • Регистрация: 14.07.2012
  • Статус: Пользователь offline
 
xelena
Большое спасибо!

Информация
Посетители, находящиеся в группе Гости, не могут оставлять комментарии к данной публикации.