» » Jesus Christ Superstar (1970) Tape rip

 
 
 

Jesus Christ Superstar (1970) Tape rip

Автор: sergjazz от 24-03-2014, 14:57, посмотрело: 2041

2
Jesus Christ Superstar (1970) Tape rip



Название: Andrew Lloyd Webber And Tim Rice - Jesus Christ Superstar
Жанр: Rock Opera
Год выпуска: 1970
Количество композиций: 2
Формат: flac
Качество: lossless 24 bit/96 kHz
Размер файла: 926 + 918 Мб

Оцифровка доступна для скачивания с файлообменников:
mega


Предпрослушка: mp3


разделения на треки отсутствует
Список композиций:
1.1 Overture
Directed By [Children's Choir] – Alan Doggett
3:59
1.2 Heaven On Their Minds 4:23
1.3 What's The Buzz / Strange Thing Mystifying 4:13
1.4 Everything's Alright 5:15
1.5 This Jesus Must Die 3:36
1.6 Hosanna 2:07
1.7 Simon Zealotes / Poor Jerusalem 4:49
1.8 Pilate's Dream 1:28
1.9 The Temple 4:43
1.10 Everything's Alright 0:34
1.11 I Don't Know How To Love Him 3:36
1.12 Damned For All Time / Blood Money 5:11
2.1 The Last Supper 7:10
2.2 Gethsemane (I Only Want To Say) 5:33
2.3 The Arrest 3:24
2.4 Peter's Denial 1:27
2.5 Pilate And Christ 2:46
2.6 King Herod's Song 3:02
2.7 Judas' Death 4:17
2.8 Trial Before Pilate (Including The 39 Lashes) 5:13
2.9 Superstar
Choir – Trinidad Singers, The Leader [The Trinidad Singers] – Horace James (2)
4:16
2.10 Crucifixion 4:04
2.11 John Nineteen: Forty One 2:10

Credits
Acoustic Guitar, Electric Guitar – Henry McCulloch*
Artwork By [Lettering] – Anne Brenchley
Bass Guitar – Alan Spenner, Alan Weighall, Jeff Clyne, Peter Morgan*
Bassoon – Anthony Brooke, Joseph Castaldini
Clarinet – Ian Herbert
Conductor [Orchestra Principal Conductor], Synthesizer [Moog] – Alan Doggett
Conductor [Strings Of The City Of London] – Malcolm Henderson
Drums – John Marshall
Drums, Percussion – Bruce Rowland
Electric Guitar – Neil Hubbard
Engineer [Advision] – Martin Rushend*
Engineer [Chief Recording] – Alan M. O'Duffy*
Engineer [Cutting] – Tony Bridge
Engineer [Recording] – Anton Matthews, Jeremy Gee, Stephen Vaughan*
Flute – Brian Warren, Chris Taylor (5)
Guitar – Chris Spedding, Clive Hicks, Louis Stewart, Steve Vaughan
Horns – Andrew McGavin, Douglas Moore (3), James Brown (10), Jim Buck Snr.*, Jim Buck Jnr.*, John Burdon*
Leader [Choir] – Geoffrey Mitchell
Lyrics By – Tim Rice
Music By, Orchestrated By, Directed By [Musical Direction] – Andrew Lloyd Webber
Other [Production Management] – Don Norman
Percussion – Bill LeSage*
Photography [Cover] – Peter Sanders
Piano – Carl Jenkins*, Norman Cave
Piano, Electric Piano, Organ, Organ [Positive] – Peter Robinson
Piano, Organ – Mick Weaver
Piano, Organ, Synthesizer [Moog] – Andrew Lloyd Webber
Producer – Andrew Lloyd Webber, Tim Rice
Saxophone [Tenor] – Chris Mercer
Trombone – Anthony Moore (7), Frank Jones, Keith Christie
Trumpet – Harold Beckett*, Ian Hamer, Kenny Wheeler, Les Condon
Vocals [Annas] – Brian Keith (2)
Vocals [Apostles, Priests, Roman Soldiers, Merchants, Crowd] – Alan O'Duffy, Andrew Lloyd Webber, Barbara Kay, Brian Bennett*, Kay Garner, Lesley Duncan, Madeline Bell, Seafield St. George*, Neil Lancaster, Pat Arnold*, Peter Barnfeather, Sue And Sunny*, Terry Saunders, Tim Rice, Tony Ashton
Vocals [Caiaphas, High Priest] – Victor Brox
Vocals [Jesus Christ] – Ian Gillan
Vocals [Judas Iscariot] – Murray Head
Vocals [King Herod] – Mike D'Abo
Vocals [Maid By The Fire] – Annette Brox
Vocals [Mary Magdalene] – Yvonne Elliman
Vocals [Peter] – Paul Davis (11)
Vocals [Pontius Pilate] – Barry Dennen
Vocals [Priest] – Paul Raven (2)
Vocals [Simon Zealotes] – John Gustafson



Скачать :

Внимание! У вас нет прав для просмотра скрытого текста.

Внимание! У вас нет прав для просмотра скрытого текста.

Релиз понравился ? Скажи автору спасибо !

Категория: Magnitoalbom Rip, Rock, Art-rock, Hard-rock

Уважаемый посетитель, Вы зашли на сайт как незарегистрированный пользователь.
Мы рекомендуем Вам зарегистрироваться либо войти на сайт под своим именем.
<
  • 537 комментариев
  • 105 публикаций
  • ICQ:
24 марта 2014 16:11

xelena

  • Группа: Главный Редактор
  • Регистрация: 19.07.2012
  • Статус: Пользователь offline
 
Огромное вам спасибо!

<
  • 537 комментариев
  • 105 публикаций
  • ICQ:
24 апреля 2014 18:35

xelena

  • Группа: Главный Редактор
  • Регистрация: 19.07.2012
  • Статус: Пользователь offline
 
CUE_01
-----------------------------------------------
REM GENRE Rock Opera
REM DATE 1970
REM COMMENT Tape rip by sergjazz (2014)
PERFORMER "Andrew Lloyd Webber And Tim Rice"
TITLE "Jesus Christ Superstar (disc_01)"
FILE "Jesus Christ Superstar (1970) part 1.flac" WAVE
TRACK 01 AUDIO
TITLE "Overture"
INDEX 01 00:00:00
TRACK 02 AUDIO
TITLE "Heaven On Their Minds"
INDEX 01 03:50:45
TRACK 03 AUDIO
TITLE "What's The Buzz / Strange Thing Mystifying"
INDEX 01 08:02:45
TRACK 04 AUDIO
TITLE "Everything's Alright"
INDEX 01 12:06:23
TRACK 05 AUDIO
TITLE "This Jesus Must Die"
INDEX 01 17:10:50
TRACK 06 AUDIO
TITLE "Hosanna"
INDEX 01 20:45:19
TRACK 07 AUDIO
TITLE "Simon Zealotes / Poor Jerusalem"
INDEX 01 22:49:11
TRACK 08 AUDIO
TITLE "Pilate's Dream"
INDEX 01 27:25:47
TRACK 09 AUDIO
TITLE "The Temple"
INDEX 01 28:50:58
TRACK 10 AUDIO
TITLE "Everything's Alright / I Don't Know How To Love Him"
INDEX 01 33:22:08
TRACK 11 AUDIO
TITLE "Damned For All Time / Blood Money"
INDEX 01 37:21:49
-----------------------------------------------
CUE_02
-----------------------------------------------
REM GENRE Rock Opera
REM DATE 1970
REM COMMENT Tape rip by sergjazz (2014)
PERFORMER "Andrew Lloyd Webber And Tim Rice"
TITLE "Jesus Christ Superstar (disc_02)"
FILE "Jesus Christ Superstar (1970) part 2.flac" WAVE
TRACK 01 AUDIO
TITLE "The Last Supper"
INDEX 01 00:00:00
TRACK 02 AUDIO
TITLE "Gethsemane (I Only Want To Say)"
INDEX 01 06:28:24
TRACK 03 AUDIO
TITLE "The Arrest"
INDEX 01 12:27:59
TRACK 04 AUDIO
TITLE "Peter's Denial"
INDEX 01 15:24:18
TRACK 05 AUDIO
TITLE "Pilate And Christ"
INDEX 01 16:49:18
TRACK 06 AUDIO
TITLE "King Herod's Song"
INDEX 01 19:26:60
TRACK 07 AUDIO
TITLE "Judas' Death"
INDEX 01 22:29:73
TRACK 08 AUDIO
TITLE "Trial Before Pilate (Including The 39 Lashes)"
INDEX 01 26:35:68
TRACK 09 AUDIO
TITLE "Superstar"
INDEX 01 31:37:68
TRACK 10 AUDIO
TITLE "Crucifixion"
INDEX 01 35:45:04
TRACK 11 AUDIO
TITLE "John Nineteen: Forty One"
INDEX 01 39:39:04

Информация
Посетители, находящиеся в группе Гости, не могут оставлять комментарии к данной публикации.