» » Abba, Supermax

 
 
 

Abba, Supermax

Автор: Ollleg от 3-03-2014, 09:35, посмотрело: 2922

8
Magnitoalbom-rip by Ollleg




Abba, Supermax


Информация о катушке:
Название: Abba , Supermax
Жанр: Disco, Pop
Количество композиций: 2 стороны , 2 файла stereo
Количество плёнок: 1 (33 min + 33 min)
Фирма: Свема 375 м
Формат: Lossless
Качество: flac 16 bit/44,1 kHz + 24/96
Размер файла: 394mb + 1,36Gb (3% на восстановление)

Предпрослушка: mp3 320


Список композиций:
Сторона № 1

01. ABBA - The Winner Takes It All
02. ABBA - On and On and On
03. ABBA - Me and I
04. ABBA - Our last summer
05. ABBA - The Piper
06. ABBA - Lay all your love on me

07. The Beatles - A hard day's night, 1964
08. The Beatles - I Should Have Known Better, 1964
09. The Beatles - If I Fell, 1964 (обрыв)

Сторона № 2

SUPERMAX; From "Electricity" (1983)
01 - Loversnight
02 - Funk It Up
03 - Show Me Your Love
04 - Body Heat
05 - Coconut Reggae
06 - Electricity

Выражаю особую признательность
за трек-лист
Valera 123 , xelena

 CUE



CКАЧАТЬ Jazz :
Пароль к архиву: ollleg001
Внимание! У вас нет прав для просмотра скрытого текста.


Релиз понравился ? Скажи автору спасибо !

Категория: Magnitoalbom Rip, pop muzic, Disco

Уважаемый посетитель, Вы зашли на сайт как незарегистрированный пользователь.
Мы рекомендуем Вам зарегистрироваться либо войти на сайт под своим именем.
<
  • 47 комментариев
  • 0 публикаций
  • ICQ:
3 марта 2014 10:04

Игорь_БЦ

  • Группа: Ветеран проекта
  • Регистрация: 20.08.2012
  • Статус: Пользователь offline
 
Большое спасибо, ollleg, оцифровочки с бобинки - особо люблю...

<
  • 1819 комментариев
  • 817 публикаций
  • ICQ:
3 марта 2014 10:10

Ollleg

  • Группа: Vizitor
  • Регистрация: 14.07.2012
  • Статус: Пользователь offline
 
Игорь, там запись была сделана на ноту 203 в 80х, диски не целиком и насчёт качества ничего сказать не могу...
Просто на сегодня "перегоняю" плёнки отца, встречаются какие то мои старые, коль ему в мп3 делаю, подумал, может и на сайт выложить, вдруг кому пригодиться?

<
  • 541 комментарий
  • 105 публикаций
  • ICQ:
3 марта 2014 17:31

xelena

  • Группа: Главный Редактор
  • Регистрация: 19.07.2012
  • Статус: Пользователь offline
 
Спасибо большое!

<
  • 1819 комментариев
  • 817 публикаций
  • ICQ:
3 марта 2014 17:46

Ollleg

  • Группа: Vizitor
  • Регистрация: 14.07.2012
  • Статус: Пользователь offline
 
За качество не убивайте....smile-24

<
  • 82 комментария
  • 6 публикаций
  • ICQ:
5 марта 2014 10:21

Valera123

  • Группа: Релизёр
  • Регистрация: 7.05.2013
  • Статус: Пользователь offline
 
Сторона № 1


01. ABBA - The Winner Takes It All

02. ABBA - On and On and On

03. ABBA - Me and I

04. ABBA - Our last summer

05. ABBA - The Piper

06. ABBA - Lay all your love on me

07. The Beatles - A hard day's night, 1964

08. The Beatles - I Should Have Known Better, 1964

09. The Beatles - If I Fell, 1964 (обрыв)

<
  • 541 комментарий
  • 105 публикаций
  • ICQ:
5 марта 2014 15:24

xelena

  • Группа: Главный Редактор
  • Регистрация: 19.07.2012
  • Статус: Пользователь offline
 
SUPERMAX; From "Electricity" (1983)
01 - Loversnight
02 - Funk It Up
03 - Show Me Your Love
04 - Body Heat
05 - Coconut Reggae
06 - Electricity
-----------------------------------------------------
CUE
-----------------------------------------------------
REM GENRE Electronic
REM DATE 1983
REM COMMENT Magnitoalbom-rip by Ollleg
PERFORMER "Supermax"
TITLE "Electricity"
FILE "Supermax.flac" WAVE
TRACK 01 AUDIO
TITLE "Loversnight"
INDEX 01 00:00:00
TRACK 02 AUDIO
TITLE "Funk It Up"
INDEX 01 05:51:41
TRACK 03 AUDIO
TITLE "Show Me Your Love"
INDEX 01 10:54:23
TRACK 04 AUDIO
TITLE "Body Heat"
INDEX 01 14:54:08
TRACK 05 AUDIO
TITLE "Coconut Reggae"
INDEX 01 23:09:38
TRACK 06 AUDIO
TITLE "Electricity "
INDEX 01 26:58:67
--------------------------------------
Большое спасибо, Валера 123, за трек-лист
---------------------------------------
Abba / The Beatles.cue
--------------------------------------
REM GENRE Rock
REM DATE 2014
REM COMMENT Magnitoalbom-rip by Ollleg
TITLE "Abba / The Beatles"
FILE "Abba.flac" WAVE
TRACK 01 AUDIO
TITLE "The Winner Takes It All"
PERFORMER "Abba"
INDEX 01 00:00:00
TRACK 02 AUDIO
TITLE "On and On and On"
PERFORMER "Abba"
INDEX 01 04:55:37
TRACK 03 AUDIO
TITLE "Me and I"
PERFORMER "Abba"
INDEX 01 08:35:08
TRACK 04 AUDIO
TITLE "Our last summer"
PERFORMER "Abba"
INDEX 01 13:30:45
TRACK 05 AUDIO
TITLE "The Piper"
PERFORMER "Abba"
INDEX 01 17:50:37
TRACK 06 AUDIO
TITLE "Lay all your love on me"
PERFORMER "Abba"
INDEX 01 21:17:37
TRACK 07 AUDIO
TITLE "A hard day's night, 1964"
PERFORMER "The Beatles"
INDEX 01 25:49:08
TRACK 08 AUDIO
TITLE "I Should Have Known Better, 1964"
PERFORMER "The Beatles"
INDEX 01 28:24:60
TRACK 09 AUDIO
TITLE "If I Fell, 1964 (обрыв)"
PERFORMER "The Beatles"
INDEX 01 31:11:11

<
  • 1819 комментариев
  • 817 публикаций
  • ICQ:
6 марта 2014 08:07

Ollleg

  • Группа: Vizitor
  • Регистрация: 14.07.2012
  • Статус: Пользователь offline
 
xelena , Валера
- Спасибо вам большое!

<
  • 159 комментариев
  • 0 публикаций
  • ICQ:
28 марта 2016 15:39

StalKer

  • Группа: Меломан
  • Регистрация: 15.03.2016
  • Статус: Пользователь offline
 
Хорошие концерты, хороший саунд, спасибо!!!

Информация
Посетители, находящиеся в группе Гости, не могут оставлять комментарии к данной публикации.