» » группа ВИХРЫ - Магнитоальбом (1992)

 
 
 

группа ВИХРЫ - Магнитоальбом (1992)

Автор: Ollleg от 23-01-2015, 20:12, посмотрело: 2097

0
МAGNITORIP-by Boris 63



группа ВИХРЫ - Магнитоальбом (1992)
группа ВИХРЫ - Магнитоальбом (1992)

Оцифровка с катушки из личной коллекции



Название: Магнитоальбом (1992)
Исполнитель: группа ВИХРЫ
Жанр: Pop
Год выпуска: 1993
Количество композиций: 13
Формат: lossless
Качество: flac 24 bit/96 kHz
Размер файла: 999 Мб

**Релиз выставлен на сайте Plastinka-rip
с личного разрешения автора оцифровки
БОРИС 63


Предпрослушка: mp3


Список композиций:
REM GENRE "ПОП"
REM DATE 1992
REM COMMENT "Оцифровка - Борис 63"
PERFORMER "Группа ВИХРЫ"
TITLE "Магнитоальбом"
FILE "ВИХРЫ 1992.flac" WAVE
TRACK 01 AUDIO
TITLE "Сестра Катерина"
INDEX 01 00:00:70
TRACK 02 AUDIO
TITLE "Я вернусь"
INDEX 01 04:10:38
TRACK 03 AUDIO
TITLE "Всё это я"
INDEX 01 07:26:61
TRACK 04 AUDIO
TITLE "Не опускай руки"
INDEX 01 11:14:04
TRACK 05 AUDIO
TITLE "Я только ЗА..."
INDEX 01 15:24:25
TRACK 06 AUDIO
TITLE "Я люблю"
INDEX 01 17:51:13
TRACK 07 AUDIO
TITLE "Вдвоем по ночному бульвару"
INDEX 01 20:59:07
TRACK 08 AUDIO
TITLE "Ты одна"
INDEX 01 23:41:50
TRACK 09 AUDIO
TITLE "Для меня"
INDEX 01 27:01:32
TRACK 10 AUDIO
TITLE "Попутчица (В.Малежик)"
INDEX 01 30:40:50
TRACK 11 AUDIO
TITLE "Пой, музыка, пой (В.Малежик)"
INDEX 01 35:23:21
TRACK 12 AUDIO
TITLE "Бежит машина (В.Малежик)"
INDEX 01 38:29:52
TRACK 13 AUDIO
TITLE "Ты успеешь (В.Малежик)"
INDEX 01 41:58:18



Скачать [24/96] группа ВИХРЫ - Магнитоальбом (1992) Lossless

Внимание! У вас нет прав для просмотра скрытого текста.

Релиз понравился ? Скажи автору спасибо !

Категория: Magnitoalbom Rip, pop muzic

Уважаемый посетитель, Вы зашли на сайт как незарегистрированный пользователь.
Мы рекомендуем Вам зарегистрироваться либо войти на сайт под своим именем.
Информация
Посетители, находящиеся в группе Гости, не могут оставлять комментарии к данной публикации.