» » Геннадий Ветров - Вижу Я (1992)

 
 
 

Геннадий Ветров - Вижу Я (1992)

Автор: Ollleg от 23-01-2015, 17:34, посмотрело: 1112

0
МAGNITORIP-by Boris 63



Геннадий Ветров - Вижу Я (1992)

Геннадий Ветров - Вижу Я (1992)

Оцифровка с катушки из личной коллекции
Подача сигнала - катушечник - AKAI-4000-DS-Mk-||
Записано на рекордер Денон 1000



Название: Вижу Я
Исполнитель: Геннадий Ветров
Жанр: Pop
Год выпуска: 1992
Количество композиций: 11
Формат: flac
Качество: lossless 16 bit/44 kHz
Размер файла: 321 Мб

**Релиз выставлен на сайте Plastinka-rip
с личного разрешения автора оцифровки
БОРИС 63


Предпрослушка: mp3


Список композиций:
REM GENRE "ПОП"
REM DATE 1992
REM COMMENT "Оцифровка - Борис 63"
PERFORMER "Геннадий Ветров"
TITLE "Вижу Я"
FILE "Геннадий Ветров - Вижу Я.flac" WAVE
TRACK 01 AUDIO
TITLE "К закатным облакам"
PERFORMER "Геннадий Ветров"
INDEX 01 00:01:08
TRACK 02 AUDIO
TITLE "Вижу Я"
PERFORMER "Геннадий Ветров"
INDEX 01 05:01:12
TRACK 03 AUDIO
TITLE "В память ушедшим"
PERFORMER "Геннадий Ветров"
INDEX 01 10:07:17
TRACK 04 AUDIO
TITLE "Всё поймёшь"
PERFORMER "Геннадий Ветров"
INDEX 01 13:12:28
TRACK 05 AUDIO
TITLE "Ночь моя"
PERFORMER "Геннадий Ветров"
INDEX 01 16:56:73
TRACK 06 AUDIO
TITLE "День настанет"
PERFORMER "Геннадий Ветров"
INDEX 01 20:45:16
TRACK 07 AUDIO
TITLE "Я думаю о тебе"
PERFORMER "Геннадий Ветров"
INDEX 01 24:37:14
TRACK 08 AUDIO
TITLE "Разговор с городом"
PERFORMER "Геннадий Ветров"
INDEX 01 28:26:63
TRACK 09 AUDIO
TITLE "Студия Марафон"
PERFORMER "Реклама"
INDEX 01 31:52:46
TRACK 10 AUDIO
TITLE "Я верю"
PERFORMER "Геннадий Ветров"
INDEX 01 33:23:63
TRACK 11 AUDIO
TITLE "Подари мне рассвет"
PERFORMER "Геннадий Ветров"
INDEX 01 37:47:04
TRACK 12 AUDIO
TITLE "Десятый класс"

Скачать Геннадий Ветров - Вижу Я (1992) Lossless

Внимание! У вас нет прав для просмотра скрытого текста.

Релиз понравился ? Скажи автору спасибо !

Категория: Magnitoalbom Rip, pop muzic

Уважаемый посетитель, Вы зашли на сайт как незарегистрированный пользователь.
Мы рекомендуем Вам зарегистрироваться либо войти на сайт под своим именем.
Информация
Посетители, находящиеся в группе Гости, не могут оставлять комментарии к данной публикации.