» » Мона-Лиза - За океан (1992)

 
 
 

Мона-Лиза - За океан (1992)

Автор: Ollleg от 23-01-2015, 17:12, посмотрело: 1142

0
МAGNITORIP-by Boris 63



Мона-Лиза - За океан (1992)

Оцифровка с катушки из личной коллекции
Подача сигнала - катушечник - AKAI - 4000 DS
Записано на рекордер Denon - 1000



Название: За океан
Исполнитель: Мона-Лиза
Жанр: Pop
Год выпуска: 1992
Количество композиций: 12
Формат: flac
Качество: lossless 16 bit/44 kHz
Размер файла: 326 Мб

**Релиз выставлен на сайте Plastinka-rip
с личного разрешения автора оцифровки
БОРИС 63


Предпрослушка: mp3


Список композиций:
REM GENRE "ПОП"
REM DATE 1992
REM COMMENT "Оцифровка - Борис 63"
PERFORMER "Мона Лиза"
TITLE "За океан"
FILE "Мона-Лиза.flac" WAVE
TRACK 01 AUDIO
TITLE "Мальчик мой"
INDEX 01 00:00:00
TRACK 02 AUDIO
TITLE "Я не могу так больше"
INDEX 01 05:13:65
TRACK 03 AUDIO
TITLE "Эмансипация"
INDEX 01 10:29:61
TRACK 04 AUDIO
TITLE "Капли дождя"
INDEX 01 14:32:72
TRACK 05 AUDIO
TITLE "С лёгким паром"
INDEX 01 19:20:61
TRACK 06 AUDIO
TITLE "Карнавальная ночь"
INDEX 01 23:07:10
TRACK 07 AUDIO
TITLE "Сколько можно?"
INDEX 01 27:38:02
TRACK 08 AUDIO
TITLE "Марафон"
INDEX 01 31:39:12
TRACK 09 AUDIO
TITLE "Просто так"
INDEX 01 33:12:35
TRACK 10 AUDIO
TITLE "Дорогой длинною"
INDEX 01 38:05:17
TRACK 11 AUDIO
TITLE "Инструментал-1"
INDEX 01 39:32:26
TRACK 12 AUDIO
TITLE "Инструментал-2"

Скачать Мона-Лиза - За океан (1992) Lossless

Внимание! У вас нет прав для просмотра скрытого текста.

Релиз понравился ? Скажи автору спасибо !

Категория: Magnitoalbom Rip, pop muzic

Уважаемый посетитель, Вы зашли на сайт как незарегистрированный пользователь.
Мы рекомендуем Вам зарегистрироваться либо войти на сайт под своим именем.
Информация
Посетители, находящиеся в группе Гости, не могут оставлять комментарии к данной публикации.