» » Фристайл - Измученное сердце - Шестой альбом (1993)

 
 
 

Фристайл - Измученное сердце - Шестой альбом (1993)

Автор: Ollleg от 23-01-2015, 13:43, посмотрело: 2767

0
МAGNITORIP-by Boris 63



Фристайл - Измученное сердце - Шестой альбом (1993)

Оцифровка с катушки
Магнитофон - Akai - 4000d
Записано на рекордер - denon-1000



Название: Измученное сердце - Шестой альбом
Исполнитель: гр.ФРИСТАЙЛ
Жанр: Pop
Год выпуска: 1993
Количество композиций: 24
Формат: flac
Качество: lossless 16 bit/44 kHz
Размер файла: 676 Мб

**Релиз выставлен на сайте Plastinka-rip
с личного разрешения автора оцифровки
БОРИС 63


Предпрослушка: mp3 часть 1


Предпрослушка: mp3 часть 2


Список композиций:
1.ст. катушки

TRACK 01 AUDIO
TITLE "Интро + Цветет калина"
INDEX 01 00:00:00
TRACK 02 AUDIO
TITLE "Черные глаза"
INDEX 01 04:52:32
TRACK 03 AUDIO
TITLE "Ну когда же ты влюбишься?"
INDEX 01 08:50:30
TRACK 04 AUDIO
TITLE "Кони, кони"
INDEX 01 12:24:38
TRACK 05 AUDIO
TITLE "Измученное сердце"
INDEX 01 16:06:59
TRACK 06 AUDIO
TITLE "Рябинушка"
INDEX 01 20:26:58
TRACK 07 AUDIO
TITLE "Мой милый мальчик"
INDEX 01 24:25:40
TRACK 08 AUDIO
TITLE "Интро + Тельняшка черно-белая"
INDEX 01 28:13:47
TRACK 09 AUDIO
TITLE "Мой чужой"
INDEX 01 32:23:43
TRACK 10 AUDIO
TITLE "Проводила я мальчика в армию"
INDEX 01 36:27:36
TRACK 11 AUDIO
TITLE "Возвращайся домой"
INDEX 01 39:24:64
TRACK 12 AUDIO
TITLE "Заключительный инструментал"
INDEX 01 43:44:43

2.ст. катушки

TRACK 01 AUDIO
TITLE "Интро + Белые ромашки"
INDEX 01 00:00:00
TRACK 02 AUDIO
TITLE "Я не могу без тебя"
INDEX 01 04:22:26
TRACK 03 AUDIO
TITLE "Я больше не твоя девчонка"
INDEX 01 08:13:18
TRACK 04 AUDIO
TITLE "На качелях"
INDEX 01 12:30:26
TRACK 05 AUDIO
TITLE "Гитара, плачь"
INDEX 01 16:26:33
TRACK 06 AUDIO
TITLE "Бессонница"
INDEX 01 20:21:63
TRACK 07 AUDIO
TITLE "Ты меня не любишь"
INDEX 01 23:48:20
TRACK 08 AUDIO
TITLE "Ты очень крутой!"
INDEX 01 27:45:02
TRACK 09 AUDIO
TITLE "Во дворе моем живёт девчонка"
INDEX 01 31:29:11
TRACK 10 AUDIO
TITLE "Люби люби меня любимый"
INDEX 01 34:55:35
TRACK 11 AUDIO
TITLE "Под знаком Тельца"
INDEX 01 38:36:02
TRACK 12 AUDIO
TITLE "Заключительный инструментал"
INDEX 01 41:37:73

Скачать гр.Фристайл - Измученное сердце - Шестой альбом (1993

Внимание! У вас нет прав для просмотра скрытого текста.

Релиз понравился ? Скажи автору спасибо !

Категория: Magnitoalbom Rip, pop muzic

Уважаемый посетитель, Вы зашли на сайт как незарегистрированный пользователь.
Мы рекомендуем Вам зарегистрироваться либо войти на сайт под своим именем.
Информация
Посетители, находящиеся в группе Гости, не могут оставлять комментарии к данной публикации.