» » Ray Conniff , Ray Charles , ...

 
 
 

Ray Conniff , Ray Charles , ...

Автор: Ollleg от 30-08-2014, 10:35, посмотрело: 2305

8
Magnitoalbom-rip by Ollleg



Ray Conniff , Ray Charles , ...

Ray Conniff , Ray Charles , ...

Информация о катушке:
Название:

Ray Conniff , Ray Charles , ...

Жанр: Retro, Jazz, Orchestra
Количество композиций: 2 cтороны (целиком) х 1час 36мин
Количество плёнок: 1 катушка 555 метр. (BASF) speed 9,53
Формат: lossless
Качество: flac 16 bit/44,1 kHz
Размер файла: 518mb + 520mb (3% на восстановление)

Предпрослушка: mp3 192 Side A


Предпрослушка: mp3 192 Side B



Список композиций:
2 cтороны (целиком)
2 х 1час 36мин

Внимание! У вас нет прав для просмотра скрытого текста.

Скачать:
Внимание! У вас нет прав для просмотра скрытого текста.

==============

Релиз понравился ? Скажи автору спасибо !

Категория: Magnitoalbom Rip, Instrumental,Orchestra, Jazz, Blues, Soul

Уважаемый посетитель, Вы зашли на сайт как незарегистрированный пользователь.
Мы рекомендуем Вам зарегистрироваться либо войти на сайт под своим именем.
<
  • 202 комментария
  • 427 публикаций
  • ICQ:
31 августа 2014 12:29

sergjazz

  • Группа: VIP
  • Регистрация: 16.03.2014
  • Статус: Пользователь offline
 
классно. спасибо Олег. а что за стопка в правом углуhttp://plastinka-rip.ru/uploads/posts/2014-01/thumbs/1390678445_00001-.jpg

<
  • 1825 комментариев
  • 818 публикаций
  • ICQ:
31 августа 2014 12:38

Ollleg

  • Группа: Vizitor
  • Регистрация: 14.07.2012
  • Статус: Пользователь offline
 
Цитата: sergjazz
а что за стопка в правом углу

Это катушки отца, всё, что можно, оттуда оцифровано и выставлено - там особого ничего нет.... А вот дедовские некоторые безвозвратно скрипят, потеряны для оцифровки...

<
  • 202 комментария
  • 427 публикаций
  • ICQ:
31 августа 2014 13:19

sergjazz

  • Группа: VIP
  • Регистрация: 16.03.2014
  • Статус: Пользователь offline
 
не чего не помогает не уайт спирит не солнышко. может я бы с мог попробовать.

<
  • 1825 комментариев
  • 818 публикаций
  • ICQ:
31 августа 2014 13:52

Ollleg

  • Группа: Vizitor
  • Регистрация: 14.07.2012
  • Статус: Пользователь offline
 
Цитата: sergjazz
не чего не помогает не уайт спирит не солнышко. может я бы с мог попробовать.
ОТОДВИГАНИЕ СТИРАЮЩЕЙ ГОЛОВЫ ЗА ПРЕДЕЛЫ КАСАНИЯ ЛЕНТЫ, стойка дополнительная вместо записывающей головы с фетром, смачивание из шприца через каждые 5-10 минут уайт-спиритом, скипидаром, худ. растворителем ... - это не помогло. В конечном итоге пришёл к мысли, что все эти мудо--е страдания того не стоят, не такой уж раритет на этих катушках. smile-03

Серж, спасибо за предлагаемую помощь, но поверь, оно того просто не стоит. smile-33

<
  • 202 комментария
  • 427 публикаций
  • ICQ:
31 августа 2014 14:04

sergjazz

  • Группа: VIP
  • Регистрация: 16.03.2014
  • Статус: Пользователь offline
 
ну понятно.если бы что стоящие тогда да можно было бы повозиться smile-50

<
  • 1825 комментариев
  • 818 публикаций
  • ICQ:
24 сентября 2014 05:37

Ollleg

  • Группа: Vizitor
  • Регистрация: 14.07.2012
  • Статус: Пользователь offline
 
xelena , огромное спасибо за CUE !
smile-28

<
  • 542 комментария
  • 105 публикаций
  • ICQ:
3 ноября 2014 02:12

xelena

  • Группа: Главный Редактор
  • Регистрация: 19.07.2012
  • Статус: Пользователь offline
 
NATIONAL Side A.CUE
---------------------------------
REM GENRE Jazz
REM DATE 2014
REM COMMENT Magnitoalbom-rip by Ollleg
PERFORMER "Various Artists"
TITLE "Ray Charles, The Ramsey Lewis Trio, The Modern Jazz Quartet, The Swingle Singers"
FILE "NATIONAL Side A.flac" WAVE
TRACK 01 AUDIO
TITLE "Careless Love"
PERFORMER "Ray Charles"
INDEX 01 00:00:00
TRACK 02 AUDIO
TITLE "I'm Busted"
PERFORMER "Ray Charles"
INDEX 01 03:59:64
TRACK 03 AUDIO
TITLE "Talkin' About You"
PERFORMER "Ray Charles"
INDEX 01 06:14:51
TRACK 04 AUDIO
TITLE "What'd I Say"
PERFORMER "Ray Charles"
INDEX 01 07:38:51
TRACK 05 AUDIO
TITLE "The 'In' Crowd"
PERFORMER "The Ramsey Lewis Trio"
INDEX 01 12:22:49
TRACK 06 AUDIO
TITLE "Hang on sloopy"
PERFORMER "The Ramsey Lewis Trio"
INDEX 01 18:26:51
TRACK 07 AUDIO
TITLE "A Hard Day's Night"
PERFORMER "The Ramsey Lewis Trio"
INDEX 01 21:36:49
TRACK 08 AUDIO
TITLE " - - -"
PERFORMER "The Ramsey Lewis Trio"
INDEX 01 26:45:33
TRACK 09 AUDIO
TITLE "Arrivederci Roma"
PERFORMER "The Ramsey Lewis Trio"
INDEX 01 29:00:59
TRACK 10 AUDIO
TITLE "- - -"
PERFORMER "The Ramsey Lewis Trio"
INDEX 01 34:52:25
TRACK 11 AUDIO
TITLE "- - -"
PERFORMER "The Ramsey Lewis Trio"
INDEX 01 37:31:28
TRACK 12 AUDIO
TITLE "- - -"
PERFORMER "The Ramsey Lewis Trio"
INDEX 01 41:27:36
TRACK 13 AUDIO
TITLE "- - -"
PERFORMER "The Ramsey Lewis Trio"
INDEX 01 48:11:40
TRACK 14 AUDIO
TITLE "Barefoot Sunday Blues"
PERFORMER "The Ramsey Lewis Trio"
INDEX 01 50:47:30
TRACK 15 AUDIO
TITLE "Lonely Avenue"
PERFORMER "The Ramsey Lewis Trio"
INDEX 01 54:30:65
TRACK 16 AUDIO
TITLE "- - -"
PERFORMER "The Modern Jazz Quartet "
INDEX 01 57:22:02
TRACK 17 AUDIO
TITLE "- - - -"
PERFORMER "The Modern Jazz Quartet "
INDEX 01 60:39:41
TRACK 18 AUDIO
TITLE "- - -"
PERFORMER "The Modern Jazz Quartet "
INDEX 01 64:30:46
TRACK 19 AUDIO
TITLE "- - -"
PERFORMER "The Modern Jazz Quartet "
INDEX 01 69:05:29
TRACK 20 AUDIO
TITLE "Telemann - Trumpet Concerto - Adagio"
PERFORMER "The Swingle Singers"
INDEX 01 72:23:48
TRACK 21 AUDIO
TITLE "Telemann - Trumpet Concerto - Presto"
PERFORMER "The Swingle Singers"
INDEX 01 73:48:39
TRACK 22 AUDIO
TITLE "Telemann - Trumpet Concerto - Adagio"
PERFORMER "The Swingle Singers"
INDEX 01 74:58:31
TRACK 23 AUDIO
TITLE "Telemann - Trumpet Concerto - Allegro"
PERFORMER "The Swingle Singers"
INDEX 01 75:32:39
TRACK 24 AUDIO
TITLE "Couperin - La Couperin"
PERFORMER "The Swingle Singers"
INDEX 01 77:45:37
TRACK 25 AUDIO
TITLE "Telemann - Suite for Strings 'La Lyra' - Gigue"
PERFORMER "The Swingle Singers"
INDEX 01 80:42:32
TRACK 26 AUDIO
TITLE "Muffat - Fugue In D Minor"
PERFORMER "The Swingle Singers"
INDEX 01 82:31:70
TRACK 27 AUDIO
TITLE "Telemann - Trio Sonata in E - Presto"
PERFORMER "The Swingle Singers"
INDEX 01 85:42:51
TRACK 28 AUDIO
TITLE "Telemann - Concerto In A for Oboe d'amore - Larghetto"
PERFORMER "The Swingle Singers"
INDEX 01 87:14:32
TRACK 29 AUDIO
TITLE "Daquin - Le Coucou"
PERFORMER "The Swingle Singers"
INDEX 01 90:31:55
TRACK 30 AUDIO
TITLE "Quantz - Sonata In C Minor - Allegro"
PERFORMER "The Swingle Singers"
INDEX 01 92:20:30

<
  • 1825 комментариев
  • 818 публикаций
  • ICQ:
23 февраля 2016 18:20

Ollleg

  • Группа: Vizitor
  • Регистрация: 14.07.2012
  • Статус: Пользователь offline
 
Так же обновил ссылки - Я-ДИСК добавлен.

Информация
Посетители, находящиеся в группе Гости, не могут оставлять комментарии к данной публикации.